[Login] or [Signup]


Warning! Use a VPN When Downloading Torrents!
Your IP Address is .   Location is
Your Internet Provider is tracking your torrent activity!  Hide your IP ADDRESS with a VPN!
We strongly recommend using Trust.Zone VPN to anonymize your torrenting. It's FREE!
Get VPN Now for FREE!
First Cams

Xvid/x264



Non-English

Loading...



Complete Name :[email protected]
Download torrent:    [email protected]
Info Hash:cd541bcc774756ce7093889469e171227b9e4257
Category:Movies  > Cam/TS
Torrent language:English  
Seeds | Leech:0 | 0
Complete: 0
Health:
Total Size:748.24 MB
Downloaded:10 Times
Added By:      iMaX100
Date Added:31-01-2019 04:38:pm | Last Edit:  01-02-2019 01:21:pm

 

Main Technical Comments
Language: English

Genre: Biography | Comedy | Crime | Drama

When Lee Israel falls out of step with current tastes, she turns her art form to deception.




[code]Format                                   : Matroska
Format version                           : Version 2
File size                                : 748 MiB
Duration                                 : 1 h 46 min
Overall bit rate                         : 983 kb/s
Encoded date                             : UTC 2019-01-25 22:24:19
Writing application                      : mkvmerge v26.0.0 ('In The Game') 64-bit
Writing library                          : libebml v1.3.6 + libmatroska v1.4.9

Video
ID                                       : 1
Format                                   : HEVC
Format/Info                              : High Efficiency Video Coding
Format profile                           : [email protected]@Main
Codec ID                                 : V_MPEGH/ISO/HEVC
Duration                                 : 1 h 46 min
Bit rate                                 : 534 kb/s
Width                                    : 720 pixels
Height                                   : 304 pixels
Display aspect ratio                     : 2.35:1
Frame rate mode                          : Constant
Frame rate                               : 23.976 (24000/1001) FPS
Color space                              : YUV
Chroma subsampling                       : 4:2:0
Bit depth                                : 8 bits
Bits/(Pixel*Frame)                       : 0.102
Stream size                              : 406 MiB (54%)
Writing library                          : x265 2.8+1-478bfe2b7673:[Windows][GCC 7.3.0][64 bit] 8bit+10bit+12bit
Encoding settings                        : cpuid=1049583 / frame-threads=3 / numa-pools=8 / wpp / no-pmode / no-pme / no-psnr / no-ssim / log-level=2 / input-csp=1 / input-res=720x304 / interlace=0 / total-frames=153025 / level-idc=0 / high-tier=1 / uhd-bd=0 / ref=3 / no-allow-non-conformance / no-repeat-headers / annexb / no-aud / no-hrd / info / hash=0 / no-temporal-layers / open-gop / min-keyint=23 / keyint=250 / gop-lookahead=0 / bframes=4 / b-adapt=2 / b-pyramid / bframe-bias=0 / rc-lookahead=20 / lookahead-slices=0 / scenecut=40 / radl=0 / no-intra-refresh / ctu=64 / min-cu-size=8 / no-rect / no-amp / max-tu-size=32 / tu-inter-depth=1 / tu-intra-depth=1 / limit-tu=0 / rdoq-level=0 / dynamic-rd=0.00 / no-ssim-rd / signhide / no-tskip / nr-intra=0 / nr-inter=0 / no-constrained-intra / strong-intra-smoothing / max-merge=2 / limit-refs=3 / no-limit-modes / me=1 / subme=2 / merange=57 / temporal-mvp / weightp / no-weightb / no-analyze-src-pics / deblock=0:0 / sao / no-sao-non-deblock / rd=3 / no-early-skip / rskip / no-fast-intra / no-tskip-fast / no-cu-lossless / no-b-intra / no-splitrd-skip / rdpenalty=0 / psy-rd=2.00 / psy-rdoq=0.00 / no-rd-refine / no-lossless / cbqpoffs=0 / crqpoffs=0 / rc=abr / bitrate=533 / qcomp=0.60 / qpstep=4 / stats-write=0 / stats-read=2 / cplxblur=20.0 / qblur=0.5 / ipratio=1.40 / pbratio=1.30 / aq-mode=1 / aq-strength=1.00 / cutree / zone-count=0 / no-strict-cbr / qg-size=32 / no-rc-grain / qpmax=69 / qpmin=0 / no-const-vbv / sar=1 / overscan=0 / videoformat=5 / range=0 / colorprim=2 / transfer=2 / colormatrix=2 / chromaloc=0 / display-window=0 / max-cll=0,0 / min-luma=0 / max-luma=255 / log2-max-poc-lsb=8 / vui-timing-info / vui-hrd-info / slices=1 / no-opt-qp-pps / no-opt-ref-list-length-pps / no-multi-pass-opt-rps / scenecut-bias=0.05 / no-opt-cu-delta-qp / no-aq-motion / no-hdr / no-hdr-opt / no-dhdr10-opt / no-idr-recovery-sei / analysis-reuse-level=5 / scale-factor=0 / refine-intra=0 / refine-inter=0 / refine-mv=0 / no-limit-sao / ctu-info=0 / no-lowpass-dct / refine-mv-type=0 / copy-pic=1 / max-ausize-factor=1.0 / no-dynamic-refine / no-single-sei
Default                                  : Yes
Forced                                   : No

Audio
ID                                       : 2
Format                                   : AC-3
Format/Info                              : Audio Coding 3
Codec ID                                 : A_AC3
Duration                                 : 1 h 46 min
Bit rate mode                            : Constant
Bit rate                                 : 448 kb/s
Channel(s)                               : 6 channels
Channel positions                        : Front: L C R, Side: L R, LFE
Sampling rate                            : 48.0 kHz
Frame rate                               : 31.250 FPS (1536 SPF)
Bit depth                                : 16 bits
Compression mode                         : Lossy
Stream size                              : 341 MiB (46%)
Language                                 : English
Service kind                             : Complete Main
Default                                  : Yes
Forced                                   : No[/code]
........................................................................


Loading...


Trackers:
UDP://TRACKER.LEECHERS-PARADISE.ORG:6969/ANNOUNCE

[email protected]
Files
Downloaded from www.SANET.ST.txt --- 223.00 B
www.SANET.ST - [email protected] --- 748.24 MB


Similar Torrents
Type Name Size Added S L
h.264/x264 Can.You.Ever.Forgive.Me.2018.DVDScr.XVID.AC3.SHQ.H...
1.55 GB 2019-01-24 01:39:08 5753 4066
HD Video HD FNEO-010 make sure to follow us so you dont mis...
6.24 GB 2019-01-29 00:44:55 3409 3596
Video FC2-PPV-493867 individual shooting vaginal cum sh...
1.27 GB 2019-02-16 13:54:58 1904 1196
Video MommyGotBoobs 19 02 09 Vanessa Cage Can You Undres...
366.66 MB 2019-02-09 09:22:19 1488 908
Video BrazzersExxtra 19 01 02 Sally Dangelo Can You Help...
291.44 MB 2019-01-02 07:59:57 1379 408
Video [MommyGotBoobs] Vanessa Cage - Can You Undress Me ...
444.91 MB 2019-02-09 07:19:29 1332 1004
Divx/Xvid Can.You.Ever.Forgive.Me.2018.DVDScr.XVID.AC3.SHQ.H...
1.55 GB 2019-01-24 09:41:33 1028 850
Video NGOD-064 beg better can you hear Can you can you h...
1.59 GB 2019-02-09 08:40:10 784 1288
Video WANZ-719 large changes made and exit the Taiwan J...
1.57 GB 2019-02-15 13:34:44 770 729
Video [BrazzersExxtra] Sally D Angelo - Can You Help My ...
425.68 MB 2019-01-02 07:15:39 764 180

Comments:
No comments still posted
Loading...
Powered by TT | Page Generated In 0.093342 secs.
| RSS Feed | Feed Info