[Login] or [Signup]


Warning! Use a VPN When Downloading Torrents!
Your IP Address is .   Location is
Your Internet Provider is tracking your torrent activity!  Hide your IP ADDRESS with a VPN!
We strongly recommend using Trust.Zone VPN to anonymize your torrenting. It's FREE!
Get VPN Now for FREE!
First Cams

Xvid/x264



Non-English

Loading...

Ek Ladki Ko Dekha Toh Aisa Laga (2019) Hindi Pre-DVDRip x264 AAC by Full4movies


Complete Name :Ek Ladki Ko Dekha Toh Aisa Laga (2019) Hindi Pre-DVDRip x264 AAC by Full4movies
Download torrent:    Ek Ladki Ko Dekha Toh Aisa Laga (2019) Hindi Pre-DVDRip x264 AAC by Full4movies.torrent
Info Hash:ee1a9f7c7da034e105cfc3fba2ce1228e9b857c8
Category:Movies  > Cam/TS
Torrent language:Hindi  
Seeds | Leech:182 | 227
Complete: 807
Health:
Total Size:701.61 MB
Downloaded:15 Times
Added By:      full4movies
Date Added:02-02-2019 11:07:am | Last Edit:  03-02-2019 11:20:am

 

IMDB
Ek Ladki Ko Dekha Toh Aisa Laga
Ek Ladki Ko Dekha Toh Aisa Laga Released 01 Feb 2019

Genre Comedy, Drama, Romance

Director Shelly Chopra Dhar

Writer Gazal Dhaliwal (Screenplay), Gazal Dhaliwal (dialogue), Gazal Dhaliwal (story), Shelly Chopra Dhar (Screenplay), Shelly Chopra Dhar (Story)

Actors Sonam Kapoor, Anil Kapoor, Juhi Chawla, Rajkummar Rao

Plot Some love stories are not simple, Sweety's is one such story. She has to contend with her over-enthusiastic family that wants to get her married, a young writer who is completely smitten by...

Link http://www.imdb.com/title/tt8108164

Last Updated 18-02-2019 16:31:10

Main Technical Comments


General
Complete name                  : Ek Ladki Ko Dekha Toh Aisa Laga (2019) Hindi Pre-DVDRip x264 AAC by Full4movies.mkv
Format                         : Matroska
Format version                 : Version 4 / Version 2
File size                      : 702 MiB
Duration                       : 1 h 54 min
Overall bit rate               : 860 kb/s
Movie name                     : www.full4movies.me
Encoded date                   : UTC 2019-02-01 18:40:46
Writing application            : mkvmerge v8.1.0 ('Psychedelic Postcard') 64bit
Writing library                : libebml v1.3.1 + libmatroska v1.4.2

Video
ID                             : 1
Format                         : AVC
Format/Info                    : Advanced Video Codec
Format profile                 : [email protected]
Format settings, CABAC         : Yes
Format settings, RefFrames     : 4 frames
Codec ID                       : V_MPEG4/ISO/AVC
Duration                       : 1 h 54 min
Bit rate                       : 697 kb/s
Width                          : 688 pixels
Height                         : 300 pixels
Display aspect ratio           : 2.25:1
Frame rate mode                : Constant
Frame rate                     : 25.000 FPS
Color space                    : YUV
Chroma subsampling             : 4:2:0
Bit depth                      : 8 bits
Scan type                      : Progressive
Bits/(Pixel*Frame)             : 0.135
Stream size                    : 569 MiB (81%)
Writing library                : x264 core 148 r2708 86b7198
Default                        : Yes
Forced                         : No
Color range                    : Limited
Color primaries                : BT.601 PAL
Transfer characteristics       : BT.709
Matrix coefficients            : BT.601

Audio
ID                             : 2
Format                         : AAC
Format/Info                    : Advanced Audio Codec
Format profile                 : LC
Codec ID                       : A_AAC
Duration                       : 1 h 54 min
Bit rate                       : 160 kb/s
Channel(s)                     : 2 channels
Channel positions              : Front: L R
Sampling rate                  : 48.0 kHz
Frame rate                     : 46.875 FPS (1024 SPF)
Compression mode               : Lossy
Delay relative to video        : -21 ms
Stream size                    : 131 MiB (19%)
Language                       : Hindi
Default                        : Yes
Forced                         : No

Screen Shoots
........................................................................


Loading...


Trackers:
udp://tracker.coppersurfer.tk:6969/announce

Ek Ladki Ko Dekha Toh Aisa Laga (2019) Hindi Pre-DVDRip x264 AAC by Full4movies
Files
Ek Ladki Ko Dekha Toh Aisa Laga (2019) Hindi Pre-DVDRip x264 AAC by Full4movies.mkv --- 701.61 MB


Similar Torrents
Type Name Size Added S L
Cam/TS Ek Ladki Ko Dekha Toh Aisa Laga (2019) Hindi 720p ...
994.82 MB 2019-02-01 22:49:34 407 467
Non-English Ek Ladki Ko Dekha Toh Aisa Laga (2019) Hindi PreDv...
704.80 MB 2019-02-01 18:36:36 259 62
Cam/TS Ek Ladki Ko Dekha Toh Aisa Laga (2019) 720p NEW De...
1.18 GB 2019-02-02 09:20:47 230 94
Cam/TS Ek Ladki Ko Dekha Toh Aisa Laga (2019) 480p NEW De...
391.01 MB 2019-02-02 09:23:55 46 1

Comments:
No comments still posted
Loading...
Powered by TT | Page Generated In 0.627296 secs.
| RSS Feed | Feed Info