[Login] or [Signup]


Warning! Use a VPN When Downloading Torrents!
Your IP Address is .   Location is
Your Internet Provider is tracking your torrent activity!  Hide your IP ADDRESS with a VPN!
We strongly recommend using Trust.Zone VPN to anonymize your torrenting. It's FREE!
Get VPN Now for FREE!
First Cams

Xvid/x264



Non-English

Loading...

Bombairiya (2019) Hindi Pre-DVDRip x264 AAC by Full4movies


Complete Name :Bombairiya (2019) Hindi Pre-DVDRip x264 AAC by Full4movies
Download torrent:    Bombairiya (2019) Hindi Pre-DVDRip x264 AAC by Full4movies.torrent
Info Hash:728d4a022be4868b6f5f74aaf0fc56149e71c929
Category:Movies  > Cam/TS
Torrent language:Hindi  
Seeds | Leech:164 | 123
Complete: 119
Health:
Total Size:703.47 MB
Downloaded:12 Times
Added By:      full4movies
Date Added:04-02-2019 05:24:pm | Last Edit:  05-02-2019 09:02:am

 

IMDB
Bombairiya
Bombairiya Released 18 Jan 2019

Genre Comedy, Crime, Drama

Director Pia Sukanya

Writer Michael E. Ward, Pia Sukanya, Aarti S. Bagdi (story)

Actors Radhika Apte, Akshay Oberoi, Siddhanth Kapoor, Ravi Kishan

Plot It follows the story of Meghna, who gets embroiled in a series of events after her phone gets stolen.

Link http://www.imdb.com/title/tt4971258

Last Updated 21-02-2019 06:19:55

Main Technical Comments


General
Complete name                  : Bombairiya (2019) Hindi Pre-DVDRip x264 AAC by Full4movies.mkv
Format                         : Matroska
Format version                 : Version 4 / Version 2
File size                      : 703 MiB
Duration                       : 1 h 44 min
Overall bit rate               : 938 kb/s
Movie name                     : www.full4movies.me
Encoded date                   : UTC 2019-02-02 16:55:39
Writing application            : mkvmerge v8.1.0 ('Psychedelic Postcard') 64bit
Writing library                : libebml v1.3.1 + libmatroska v1.4.2

Video
ID                             : 1
Format                         : AVC
Format/Info                    : Advanced Video Codec
Format profile                 : [email protected]
Format settings, CABAC         : Yes
Format settings, RefFrames     : 4 frames
Codec ID                       : V_MPEG4/ISO/AVC
Duration                       : 1 h 44 min
Bit rate                       : 772 kb/s
Width                          : 688 pixels
Height                         : 300 pixels
Display aspect ratio           : 2.25:1
Frame rate mode                : Constant
Frame rate                     : 25.000 FPS
Color space                    : YUV
Chroma subsampling             : 4:2:0
Bit depth                      : 8 bits
Scan type                      : Progressive
Bits/(Pixel*Frame)             : 0.150
Stream size                    : 582 MiB (83%)
Writing library                : x264 core 148 r2708 86b7198
Default                        : Yes
Forced                         : No
Color range                    : Limited
Color primaries                : BT.601 PAL
Transfer characteristics       : BT.709
Matrix coefficients            : BT.601

Audio
ID                             : 2
Format                         : AAC
Format/Info                    : Advanced Audio Codec
Format profile                 : LC
Codec ID                       : A_AAC
Duration                       : 1 h 44 min
Bit rate                       : 160 kb/s
Channel(s)                     : 2 channels
Channel positions              : Front: L R
Sampling rate                  : 48.0 kHz
Frame rate                     : 46.875 FPS (1024 SPF)
Compression mode               : Lossy
Delay relative to video        : -21 ms
Stream size                    : 120 MiB (17%)
Language                       : Hindi
Default                        : Yes
Forced                         : No

Screen Shoots
........................................................................


Loading...


Trackers:
udp://tracker.coppersurfer.tk:6969/announce

Bombairiya (2019) Hindi Pre-DVDRip x264 AAC by Full4movies
Files
Bombairiya (2019) Hindi Pre-DVDRip x264 AAC by Full4movies.mkv --- 703.47 MB


Comments:
No comments still posted
Loading...
Powered by TT | Page Generated In 0.475575 secs.
| RSS Feed | Feed Info