[Login] or [Signup]


Warning! Use a VPN When Downloading Torrents!
Your IP Address is .   Location is
Your Internet Provider is tracking your torrent activity!  Hide your IP ADDRESS with a VPN!
We strongly recommend using Trust.Zone VPN to anonymize your torrenting. It's FREE!
Get VPN Now for FREE!
First Cams

Xvid/x264



Non-English

Loading...

Alita Battle Angel (2019) Hindi Dubbed (Cleaned) HDCAM x264 Mp3 by Full4movies


Complete Name :Alita Battle Angel (2019) Hindi Dubbed (Cleaned) HDCAM x264 Mp3 by Full4movies
Download torrent:    Alita Battle Angel (2019) Hindi Dubbed (Cleaned) HDCAM x264 Mp3 by Full4movies.torrent
Info Hash:33498b5794729879bf42a4dcee0412d122c9554d
Category:Movies  > Cam/TS
Torrent language:Hindi  
Seeds | Leech:40 | 9
Complete: 70
Health:
Total Size:363.68 MB
Downloaded:10 Times
Added By:      full4movies
Date Added:10-02-2019 12:20:pm | Last Edit:  11-02-2019 01:31:am

 

IMDB
Alita: Battle Angel
Alita: Battle Angel Released 14 Feb 2019

Genre Action, Adventure, Romance, Sci-Fi, Thriller

Director Robert Rodriguez

Writer James Cameron (screenplay by), Laeta Kalogridis (screenplay by), Robert Rodriguez (screenplay by), Yukito Kishiro (based on the graphic novel series "Gunnm" by)

Actors Rosa Salazar, Mahershala Ali, Eiza González, Jennifer Connelly

Plot An action-packed story of one young woman's journey to discover the truth of who she is and her fight to change the world.

Link http://www.imdb.com/title/tt0437086

Last Updated 21-02-2019 05:29:33

Main Technical Comments


General
Complete name                  : Alita Battle Angel (2019) Hindi Dubbed (Cleaned) HDCAM x264 Mp3 by Full4movies.mkv
Format                         : Matroska
Format version                 : Version 4 / Version 2
File size                      : 364 MiB
Duration                       : 1 h 58 min
Overall bit rate mode          : Variable
Overall bit rate               : 429 kb/s
Movie name                     : www.full4movies.me
Encoded date                   : UTC 2019-02-09 17:33:30
Writing application            : mkvmerge v8.1.0 ('Psychedelic Postcard') 64bit
Writing library                : libebml v1.3.1 + libmatroska v1.4.2

Video
ID                             : 1
Format                         : AVC
Format/Info                    : Advanced Video Codec
Format profile                 : [email protected]
Format settings, CABAC         : Yes
Format settings, RefFrames     : 4 frames
Codec ID                       : V_MPEG4/ISO/AVC
Duration                       : 1 h 58 min
Bit rate                       : 336 kb/s
Width                          : 720 pixels
Height                         : 296 pixels
Display aspect ratio           : 2.40:1
Frame rate mode                : Constant
Frame rate                     : 29.970 (30000/1001) FPS
Color space                    : YUV
Chroma subsampling             : 4:2:0
Bit depth                      : 8 bits
Scan type                      : Progressive
Bits/(Pixel*Frame)             : 0.053
Stream size                    : 285 MiB (78%)
Writing library                : x264 core 157 r2935 545de2f
Language                       : English
Default                        : Yes
Forced                         : No

Audio
ID                             : 2
Format                         : MPEG Audio
Format version                 : Version 1
Format profile                 : Layer 3
Mode                           : Joint stereo
Codec ID                       : A_MPEG/L3
Codec ID/Hint                  : MP3
Duration                       : 1 h 58 min
Bit rate mode                  : Variable
Bit rate                       : 90.2 kb/s
Nominal bit rate               : 96.0 kb/s
Channel(s)                     : 2 channels
Sampling rate                  : 48.0 kHz
Frame rate                     : 41.667 FPS (1152 SPF)
Compression mode               : Lossy
Stream size                    : 76.5 MiB (21%)
Writing library                : LAME3.99r
Encoding settings              : -m j -V 4 -q 3 -lowpass 15.1 --abr 96
Language                       : Hindi
Default                        : Yes
Forced                         : No

Screen Shoot
........................................................................


Loading...


Trackers:
udp://tracker.coppersurfer.tk:6969/announce

Alita Battle Angel (2019) Hindi Dubbed (Cleaned) HDCAM x264 Mp3 by Full4movies
Files
Alita Battle Angel (2019) Hindi Dubbed (Cleaned) HDCAM x264 Mp3 by Full4movies.mkv --- 363.68 MB


Similar Torrents
Type Name Size Added S L
Cam/TS Alita Battle Angel 2019 HDCAM XViD AC3-ETRG
1.29 GB 2019-02-09 10:33:44 3685 3719
Cam/TS Alita Battle Angel 2019 720p HDCAM-1XBET
2.42 GB 2019-02-08 17:31:55 2562 1940
Cam/TS Alita Battle Angel 2019 720p HDCAM LATINO-1XBET
1.76 GB 2019-02-11 10:21:52 1740 1256
Cam/TS Alita Battle Angel 2019.HDCAM.V2.XViD.AC3-ETRG
1.33 GB 2019-02-20 12:35:31 1580 1326
Cam/TS Alita Battle Angel 2019 720p HDCAM x264 [MW]
1.01 GB 2019-02-10 13:27:09 1333 639
Dubs/Dual Audio Alita Battle Angel 2019 720p HDCAM x264 Dual Audio...
1.12 GB 2019-02-10 09:17:28 988 625
Dubs/Dual Audio Alita Battle Angel (2019) 720p HDCAM [Hindi (Clean...
954.83 MB 2019-02-09 11:55:06 891 403
Cam/TS Alita Battle Angel 2019 720p HDCAM V2-1XBET
2.42 GB 2019-02-20 06:21:29 798 609
Cam/TS Alita Battle Angel (2019) 720p HDCAM X264-AC3- 1XB...
843.07 MB 2019-02-08 17:27:05 715 472
Cam/TS Alita Battle Angel (2019) 720p HDCAM X264-AC3 - Wi...
1.01 GB 2019-02-08 22:41:01 654 477

Comments:
No comments still posted
Loading...
Powered by TT | Page Generated In 0.272797 secs.
| RSS Feed | Feed Info