[Login] or [Signup]


Warning! Use a VPN When Downloading Torrents!
Your IP Address is .   Location is
Your Internet Provider is tracking your torrent activity!  Hide your IP ADDRESS with a VPN!
We strongly recommend using Trust.Zone VPN to anonymize your torrenting. It's FREE!
Get VPN Now for FREE!
First Cams

Xvid/x264



Non-English

Loading...

Miss Bala 2019 720p English HDCAM x264 AAC by Full4movies


Complete Name :Miss Bala 2019 720p English HDCAM x264 AAC by Full4movies
Download torrent:    Miss Bala 2019 720p English HDCAM x264 AAC by Full4movies.torrent
Info Hash:ad2fe28c989219f0c051016fecef4bcb053763b3
Category:Movies  > Cam/TS
Torrent language:English  
Seeds | Leech:37 | 77
Complete: 198
Health:
Total Size:882.11 MB
Downloaded:11 Times
Added By:      full4movies
Date Added:10-02-2019 12:42:pm | Last Edit:  11-02-2019 02:43:am

 

IMDB
Miss Bala
Miss Bala Released 01 Feb 2019

Genre Action, Drama, Thriller

Director Catherine Hardwicke

Writer Gareth Dunnet-Alcocer (screenplay by)

Actors Gina Rodriguez, Thomas Dekker, Vivian Chan, Barbarella Pardo

Plot Gloria finds a power she never knew she had when she is drawn into a dangerous world of cross-border crime. Surviving will require all of her cunning, inventiveness, and strength. Based on the Spanish-language film.

Link http://www.imdb.com/title/tt5941692

Last Updated 18-02-2019 16:51:32
5.0

Votes 786

Main Technical Comments


General
Complete name                  : Miss Bala 2019 720p English HDCAM x264 AAC by Full4movies.mkv
Format                         : Matroska
Format version                 : Version 4 / Version 2
File size                      : 882 MiB
Duration                       : 1 h 40 min
Overall bit rate               : 1 226 kb/s
Movie name                     : www.full4movies.me
Encoded date                   : UTC 2019-02-09 08:16:09
Writing application            : mkvmerge v8.1.0 ('Psychedelic Postcard') 64bit
Writing library                : libebml v1.3.1 + libmatroska v1.4.2

Video
ID                             : 1
Format                         : AVC
Format/Info                    : Advanced Video Codec
Format profile                 : [email protected]
Format settings, CABAC         : Yes
Format settings, RefFrames     : 2 frames
Format settings, GOP           : M=1, N=25
Codec ID                       : V_MPEG4/ISO/AVC
Duration                       : 1 h 40 min
Bit rate                       : 1 026 kb/s
Width                          : 1 280 pixels
Height                         : 544 pixels
Display aspect ratio           : 2.35:1
Frame rate mode                : Constant
Frame rate                     : 29.970 (30000/1001) FPS
Color space                    : YUV
Chroma subsampling             : 4:2:0
Bit depth                      : 8 bits
Scan type                      : Progressive
Bits/(Pixel*Frame)             : 0.049
Stream size                    : 739 MiB (84%)
Language                       : English
Default                        : Yes
Forced                         : No

Audio
ID                             : 2
Format                         : AAC
Format/Info                    : Advanced Audio Codec
Format profile                 : LC
Codec ID                       : A_AAC
Duration                       : 1 h 40 min
Bit rate                       : 196 kb/s
Channel(s)                     : 2 channels
Channel positions              : Front: L R
Sampling rate                  : 48.0 kHz
Frame rate                     : 46.875 FPS (1024 SPF)
Compression mode               : Lossy
Stream size                    : 141 MiB (16%)
Language                       : English
Default                        : Yes
Forced                         : No

Screen Shoots
........................................................................


Loading...


Trackers:
udp://tracker.coppersurfer.tk:6969/announce

Miss Bala 2019 720p English HDCAM x264 AAC by Full4movies
Files
Miss Bala 2019 720p English HDCAM x264 AAC by Full4movies.mkv --- 882.11 MB


Similar Torrents
Type Name Size Added S L
Cam/TS Miss Bala 2019 720p HDCAM-1XBET
2.45 GB 2019-02-06 20:07:08 936 532
Cam/TS Miss Bala 2019 HDCAM x264 AC3-ETRG
853.96 MB 2019-02-07 10:17:33 449 420
Cam/TS Miss Bala (2019) 720p HDCAM x264-AC3-1XBET [MOVCR]
804.04 MB 2019-02-06 21:28:35 296 223
Cam/TS Miss Bala 2019 720p HDCAM.LLG
1.55 GB 2019-02-11 15:40:38 11 8

Comments:
No comments still posted
Loading...
Powered by TT | Page Generated In 0.670657 secs.
| RSS Feed | Feed Info