[Login] or [Signup]


Warning! Use a VPN When Downloading Torrents!
Your IP Address is .   Location is
Your Internet Provider is tracking your torrent activity!  Hide your IP ADDRESS with a VPN!
We strongly recommend using Trust.Zone VPN to anonymize your torrenting. It's FREE!
Get VPN Now for FREE!
First Cams

Xvid/x264



Non-English

Loading...

Blood, Sand and Gold (2017) 720p [Hindi DD 2.0 - English 2.0] HDRip x264 AC3 ESub by Full4movies


Complete Name :Blood, Sand and Gold (2017) 720p [Hindi DD 2.0 - English 2.0] HDRip x264 AC3 ESub by Full4movies
Download torrent:    Blood, Sand and Gold (2017) 720p [Hindi DD 2.0 - English 2.0] HDRip x264 AC3 ESub by Full4movies.torrent
Info Hash:7dba7e054bc9cc80cac619ef175601b43b85c145
Category:Movies  > Dubs/Dual Audio
Torrent language:Hindi  
Seeds | Leech:270 | 86
Complete: 422
Health:
Total Size:838.04 MB
Downloaded:11 Times
Added By:      full4movies
Date Added:10-02-2019 01:22:pm | Last Edit:  11-02-2019 03:30:am

 

Main Technical Comments


General
Complete name                  : Blood, Sand and Gold (2017) 720p [Hindi DD 2.0 - English 2.0] HDRip x264 AC3 ESub by Full4movies.mkv
Format                         : Matroska
Format version                 : Version 4 / Version 2
File size                      : 838 MiB
Duration                       : 1 h 28 min
Overall bit rate               : 1 321 kb/s
Movie name                     : www.full4movies.me
Encoded date                   : UTC 2019-02-08 11:13:41
Writing application            : mkvmerge v8.1.0 ('Psychedelic Postcard') 64bit
Writing library                : libebml v1.3.1 + libmatroska v1.4.2
Cover                          : Yes
Attachments                    : Cover.jpeg

Video
ID                             : 1
Format                         : AVC
Format/Info                    : Advanced Video Codec
Format profile                 : [email protected]
Format settings, CABAC         : Yes
Format settings, RefFrames     : 5 frames
Codec ID                       : V_MPEG4/ISO/AVC
Duration                       : 1 h 28 min
Bit rate                       : 1 031 kb/s
Width                          : 1 280 pixels
Height                         : 692 pixels
Display aspect ratio           : 1.85:1
Original display aspect ratio  : 1.85:1
Frame rate mode                : Constant
Frame rate                     : 23.976 (24000/1001) FPS
Color space                    : YUV
Chroma subsampling             : 4:2:0
Bit depth                      : 8 bits
Scan type                      : Progressive
Bits/(Pixel*Frame)             : 0.049
Stream size                    : 654 MiB (78%)
Title                          : www.full4movies.me
Writing library                : x264 core 148 r2708 86b7198
Language                       : English
Default                        : Yes
Forced                         : No
Color range                    : Limited
Color primaries                : BT.709
Transfer characteristics       : BT.709
Matrix coefficients            : BT.709

Audio #1
ID                             : 2
Format                         : AC-3
Format/Info                    : Audio Coding 3
Mode                           : Dolby Digital
Format settings, Endianness    : Big
Codec ID                       : A_AC3
Duration                       : 1 h 28 min
Bit rate mode                  : Constant
Bit rate                       : 224 kb/s
Channel(s)                     : 2 channels
Channel positions              : Front: L R
Sampling rate                  : 48.0 kHz
Frame rate                     : 31.250 FPS (1536 SPF)
Bit depth                      : 16 bits
Compression mode               : Lossy
Stream size                    : 142 MiB (17%)
Title                          : www.full4movies.me
Language                       : Hindi
Service kind                   : Complete Main
Default                        : Yes
Forced                         : Yes

Audio #2
ID                             : 3
Format                         : AAC
Format/Info                    : Advanced Audio Codec
Format profile                 : HE-AAC / LC
Codec ID                       : A_AAC
Duration                       : 1 h 28 min
Bit rate                       : 63.9 kb/s
Channel(s)                     : 2 channels
Channel positions              : Front: L R
Sampling rate                  : 48.0 kHz / 24.0 kHz
Frame rate                     : 23.438 FPS (1024 SPF)
Compression mode               : Lossy
Delay relative to video        : 31 ms
Stream size                    : 40.6 MiB (5%)
Language                       : English
Default                        : No
Forced                         : No

Text
ID                             : 4
Format                         : UTF-8
Codec ID                       : S_TEXT/UTF8
Codec ID/Info                  : UTF-8 Plain Text
Duration                       : 1 h 22 min
Bit rate                       : 43 b/s
Count of elements              : 793
Stream size                    : 26.1 KiB (0%)
Language                       : English
Default                        : Yes
Forced                         : Yes

Screen Shoots
........................................................................


Loading...


Trackers:
udp://tracker.coppersurfer.tk:6969/announce

Blood, Sand and Gold (2017) 720p [Hindi DD 2.0 - English 2.0] HDRip x264 AC3 ESub by Full4movies
Files
Blood, Sand and Gold (2017) 720p [Hindi DD 2.0 - English 2.0] HDRip x264 AC3 ESub by Full4movies.mkv --- 838.04 MB


Similar Torrents
Type Name Size Added S L
Divx/Xvid Blood, Sweat And Terrors 2018 DVDRip XViD-ETRG
706.35 MB 2018-11-05 11:17:02 591 364
Dubs/Dual Audio Blood, Sand And Gold 2017 x264 720p Esub BluRay Du...
567.31 MB 2019-02-08 09:44:57 569 601
Video DigitalPlayground - Abigail Mac (Hot Nights, Cold ...
392.46 MB 2019-02-15 09:38:15 246 244
Divx/Xvid Blood, Sweat And Terrors 2018 DVDRip.XViD.AC3-ETRG
1.24 GB 2018-11-05 20:19:39 150 78
Audio Ava Max - Blood, Sweat and Tears (2018) (Mp3 - 320...
9.48 MB 2019-01-06 18:24:53 115 19
DVD 18+.Blood, Sweat And Terrors 2018 DVDRip XViD.With...
642.20 MB 2018-12-31 12:30:15 100 33
Video Abigail Mac - Hot Nights, Cold Blood, Scene 1 - 02...
392.46 MB 2019-02-13 19:05:08 33 49
Video [DigitalPlayground]Abigail Mac - Hot Nights, Cold ...
392.46 MB 2019-02-15 06:15:06 32 9
DVD 18+.Blood, Sweat And Terrors 2018 DVDRip XViD.LLG
642.20 MB 2018-11-06 07:31:44 3 6

Comments:
No comments still posted
Loading...
Powered by TT | Page Generated In 0.093276 secs.
| RSS Feed | Feed Info