[Login] or [Signup]


Warning! Use a VPN When Downloading Torrents!
Your IP Address is .   Location is
Your Internet Provider is tracking your torrent activity!  Hide your IP ADDRESS with a VPN!
We strongly recommend using Trust.Zone VPN to anonymize your torrenting. It's FREE!
Get VPN Now for FREE!
First Cams

Xvid/x264



Non-English

Loading...

Jinn.2019.HDRip.XviD.AC3.LLG


Complete Name :Jinn.2019.HDRip.XviD.AC3.LLG
Download torrent:    Jinn.2019.HDRip.XviD.AC3.LLG.torrent
Info Hash:7ed9c405dcab50b58f7dbb1f132c369bec690401
Category:Movies  > Divx/Xvid
Torrent language:English  
Seeds | Leech:11 | 7
Complete: 46
Health:
Total Size:1.02 GB
Downloaded:11 Times
Added By:      LifeLongg
Date Added:11-02-2019 02:10:pm | Last Edit:  12-02-2019 02:48:pm

 

Main Technical Comments

Quote:



******************************Thumbnail:**********************



******************************Screenshots:********************

Screenshot 1

Screenshot 2

Screenshot 3

Screenshot 4

Screenshot 5

Screenshot 6

Screenshot 7

Screenshot 8

Screenshot 9

Screenshot 0


******************************************************

Jinn.2019.HDRip.XviD.AC3.LLG.mp4
Format                                   : MPEG-4
Format profile                           : Base Media
Codec ID                                 : isom (isom/iso2/avc1/mp41)
File size                                : 1.01 GiB
Duration                                 : 1 h 32 min
Overall bit rate mode                    : Variable
Overall bit rate                         : 1 577 kb/s
Writing application                      : Lavf57.83.100

Video
ID                                       : 1
Format                                   : AVC
Format/Info                              : Advanced Video Codec
Format profile                           : [email protected]
Format settings                          : CABAC / 1 Ref Frames
Format settings, CABAC                   : Yes
Format settings, RefFrames               : 1 frame
Codec ID                                 : avc1
Codec ID/Info                            : Advanced Video Coding
Duration                                 : 1 h 32 min
Bit rate mode                            : Variable
Bit rate                                 : 1 189 kb/s
Maximum bit rate                         : 3 600 kb/s
Width                                    : 720 pixels
Height                                   : 304 pixels
Display aspect ratio                     : 2.35:1
Frame rate mode                          : Constant
Frame rate                               : 23.976 (23976/1000) FPS
Color space                              : YUV
Chroma subsampling                       : 4:2:0
Bit depth                                : 8 bits
Scan type                                : Progressive
Bits/(Pixel*Frame)                       : 0.227
Stream size                              : 784 MiB (75%)
Language                                 : English
Codec configuration box                  : avcC

Audio
ID                                       : 2
Format                                   : AC-3
Format/Info                              : Audio Coding 3
Commercial name                          : Dolby Digital
Codec ID                                 : ac-3
Duration                                 : 1 h 32 min
Bit rate mode                            : Constant
Bit rate                                 : 384 kb/s
Channel(s)                               : 6 channels
Channel layout                           : L R C LFE Ls Rs
Sampling rate                            : 48.0 kHz
Frame rate                               : 31.250 FPS (1536 SPF)
Bit depth                                : 16 bits
Compression mode                         : Lossy
Stream size                              : 253 MiB (24%)
Language                                 : English
Service kind                             : Complete Main
Default                                  : Yes
Alternate group                          : 1



********************************************************


........................................................................


Loading...


Trackers:
udp://tracker.openbittorrent.com:80/announce

Jinn.2019.HDRip.XviD.AC3.LLG
Files
Jinn.2019.HDRip.XviD.AC3.LLG.mp4 --- 1.01 GB
SAMPLE.ts --- 5.35 MB


Similar Torrents
Type Name Size Added S L
Divx/Xvid Jinn.2019.HDRip.XviD.AC3-EVO
1.38 GB 2019-02-02 13:29:32 1290 630
h.264/x264 Jinn.2019.HDRip.XviD.AC3-EVO[EtMovies]
1.38 GB 2019-02-02 05:14:57 390 193
h.264/x264 Jinn.2018.HDRip.AC3.X264-CMRG[EtMovies]
1.31 GB 2019-02-02 06:39:16 329 85

Comments:
No comments still posted
Loading...
Powered by TT | Page Generated In 0.086270 secs.
| RSS Feed | Feed Info