[Login] or [Signup]


Warning! Use a VPN When Downloading Torrents!
Your IP Address is .   Location is
Your Internet Provider is tracking your torrent activity!  Hide your IP ADDRESS with a VPN!
We strongly recommend using Trust.Zone VPN to anonymize your torrenting. It's FREE!
Get VPN Now for FREE!
First Cams

Xvid/x264



Non-English

Loading...

The.Front.Runner.2019.DVDRip.XviD.AC3.LLG


Complete Name :The.Front.Runner.2019.DVDRip.XviD.AC3.LLG
Download torrent:    The.Front.Runner.2019.DVDRip.XviD.AC3.LLG.torrent
Info Hash:65733eb7f6c570b8e72caf9f95ca643e57cad8bb
Category:Movies  > Divx/Xvid
Torrent language:English  
Seeds | Leech:13 | 3
Complete: 52
Health:
Total Size:1.04 GB
Downloaded:12 Times
Added By:      LifeLongg
Date Added:11-02-2019 03:18:pm | Last Edit:  12-02-2019 02:39:pm

 

Main Technical Comments

Quote:



******************************Thumbnail:**********************



******************************Screenshots:********************

Screenshot 1

Screenshot 2

Screenshot 3

Screenshot 4

Screenshot 5

Screenshot 6

Screenshot 7

Screenshot 8

Screenshot 9

Screenshot 0


******************************************************

The.Front.Runner.2019.DVDRip.XviD.AC3.LLG.mp4
Format                                   : MPEG-4
Format profile                           : Base Media
Codec ID                                 : isom (isom/iso2/avc1/mp41)
File size                                : 1.02 GiB
Duration                                 : 1 h 53 min
Overall bit rate mode                    : Variable
Overall bit rate                         : 1 287 kb/s
Writing application                      : Lavf57.83.100

Video
ID                                       : 1
Format                                   : AVC
Format/Info                              : Advanced Video Codec
Format profile                           : [email protected]
Format settings                          : CABAC / 1 Ref Frames
Format settings, CABAC                   : Yes
Format settings, RefFrames               : 1 frame
Codec ID                                 : avc1
Codec ID/Info                            : Advanced Video Coding
Duration                                 : 1 h 53 min
Bit rate mode                            : Variable
Bit rate                                 : 899 kb/s
Maximum bit rate                         : 2 700 kb/s
Width                                    : 720 pixels
Height                                   : 384 pixels
Display aspect ratio                     : 1.85:1
Frame rate mode                          : Constant
Frame rate                               : 23.976 (23976/1000) FPS
Color space                              : YUV
Chroma subsampling                       : 4:2:0
Bit depth                                : 8 bits
Scan type                                : Progressive
Bits/(Pixel*Frame)                       : 0.136
Stream size                              : 730 MiB (70%)
Codec configuration box                  : avcC

Audio
ID                                       : 2
Format                                   : AC-3
Format/Info                              : Audio Coding 3
Commercial name                          : Dolby Digital
Codec ID                                 : ac-3
Duration                                 : 1 h 53 min
Bit rate mode                            : Constant
Bit rate                                 : 384 kb/s
Channel(s)                               : 6 channels
Channel layout                           : L R C LFE Ls Rs
Sampling rate                            : 48.0 kHz
Frame rate                               : 31.250 FPS (1536 SPF)
Bit depth                                : 16 bits
Compression mode                         : Lossy
Stream size                              : 312 MiB (30%)
Service kind                             : Complete Main
Default                                  : Yes
Alternate group                          : 1


********************************************************


........................................................................


Loading...


Trackers:
udp://tracker.openbittorrent.com:80/announce

The.Front.Runner.2019.DVDRip.XviD.AC3.LLG
Files
SAMPLE.ts --- 15.74 MB
The.Front.Runner.2019.DVDRip.XviD.AC3.LLG.mp4 --- 1.02 GB


Similar Torrents
Type Name Size Added S L
Divx/Xvid The.Front.Runner.2019.DVDRip.XviD.AC3-EVO
1.37 GB 2019-01-31 13:46:31 6629 4900
Divx/Xvid The.Front.Runner.2019.BRRip.XviD.AC3-EVO
1.38 GB 2019-02-07 06:13:00 994 426
Video Mature by MILF my sister my sister between Taiwan...
113.81 MB 2019-02-08 09:58:14 838 1193
h.264/x264 The.Front.Runner.2019.DVDRip.XviD.AC3-EVO[EtMovies...
1.37 GB 2019-01-31 14:30:46 515 359
Video Mature by MILF my sister my sister between Taiwan...
113.81 MB 2019-02-06 18:20:01 364 323
Ebooks Gross Anatomy - Dispatches from the Front (and Bac...
26.70 MB 2018-08-23 13:37:18 305 20
Video CVDX-318 is inserted from the front camera look fo...
1.42 GB 2019-02-12 14:20:29 249 366
Video Kangxi teacher Shanghai hotel about 95 years in t...
661.78 MB 2019-02-11 11:38:27 174 241
HD The.Front.Runner.2018.1080p.BluRay.x264-DRONES[EtH...
8.07 GB 2019-02-07 04:41:32 157 240
Ebooks An Intimate History of the Front - Masculinity, Se...
1,016.93 kB 2018-10-23 19:46:57 145 9

Comments:
No comments still posted
Loading...
Powered by TT | Page Generated In 0.099407 secs.
| RSS Feed | Feed Info