[Login] or [Signup]


Warning! Use a VPN When Downloading Torrents!
Your IP Address is .   Location is
Your Internet Provider is tracking your torrent activity!  Hide your IP ADDRESS with a VPN!
We strongly recommend using Trust.Zone VPN to anonymize your torrenting. It's FREE!
Get VPN Now for FREE!
First Cams

Xvid/x264



Non-English

Loading...

Miss Bala 2019 720p HDCAM.LLG


Complete Name :Miss Bala 2019 720p HDCAM.LLG
Download torrent:    Miss Bala 2019 720p HDCAM.LLG.torrent
Info Hash:6c3579a07f579c993d9fa83c016cb260fec41c18
Category:Movies  > Cam/TS
Torrent language:English  
Seeds | Leech:11 | 8
Complete: 47
Health:
Total Size:1.55 GB
Downloaded:10 Times
Added By:      LifeLongg
Date Added:11-02-2019 03:40:pm | Last Edit:  12-02-2019 02:33:pm

 

IMDB
Miss Bala
Miss Bala Released 01 Feb 2019

Genre Action, Drama, Thriller

Director Catherine Hardwicke

Writer Gareth Dunnet-Alcocer (screenplay by)

Actors Gina Rodriguez, Thomas Dekker, Vivian Chan, Barbarella Pardo

Plot Gloria finds a power she never knew she had when she is drawn into a dangerous world of cross-border crime. Surviving will require all of her cunning, inventiveness, and strength. Based on the Spanish-language film.

Link http://www.imdb.com/title/tt5941692

Last Updated 18-02-2019 16:11:38
5.0

Votes 786

Main Technical Comments

Quote:



******************************Thumbnail:**********************



******************************Screenshots:********************

Screenshot 1

Screenshot 2

Screenshot 3

Screenshot 4

Screenshot 5

Screenshot 6

Screenshot 7

Screenshot 8

Screenshot 9

Screenshot 0


******************************************************

Miss Bala 2019 720p HDCAM.LLG.mp4
Format                                   : MPEG-4
Format profile                           : Base Media
Codec ID                                 : isom (isom/iso2/avc1/mp41)
File size                                : 1.55 GiB
Duration                                 : 1 h 40 min
Overall bit rate mode                    : Variable
Overall bit rate                         : 2 207 kb/s


Video
ID                                       : 1
Format                                   : AVC
Format/Info                              : Advanced Video Codec
Format profile                           : [email protected]
Format settings                          : CABAC / 1 Ref Frames
Format settings, CABAC                   : Yes
Format settings, RefFrames               : 1 frame
Codec ID                                 : avc1
Codec ID/Info                            : Advanced Video Coding
Duration                                 : 1 h 40 min
Bit rate mode                            : Variable
Bit rate                                 : 2 012 kb/s
Maximum bit rate                         : 6 000 kb/s
Width                                    : 1 280 pixels
Height                                   : 536 pixels
Display aspect ratio                     : 2.40:1
Frame rate mode                          : Constant
Frame rate                               : 29.970 (29970/1000) FPS
Original frame rate                      : 29.970 (30000/1001) FPS
Color space                              : YUV
Chroma subsampling                       : 4:2:0
Bit depth                                : 8 bits
Scan type                                : Progressive
Bits/(Pixel*Frame)                       : 0.098
Stream size                              : 1.41 GiB (91%)


Audio
ID                                       : 2
Format                                   : AC-3
Format/Info                              : Audio Coding 3
Commercial name                          : Dolby Digital
Codec ID                                 : ac-3
Duration                                 : 1 h 40 min
Bit rate mode                            : Constant
Bit rate                                 : 192 kb/s
Channel(s)                               : 2 channels
Channel layout                           : L R
Sampling rate                            : 48.0 kHz
Frame rate                               : 31.250 FPS (1536 SPF)
Bit depth                                : 16 bits
Compression mode                         : Lossy
Stream size                              : 138 MiB (9%)
Service kind                             : Complete Main
Default                                  : Yes
Alternate group                          : 1




********************************************************


........................................................................


Loading...


Trackers:
udp://tracker.openbittorrent.com:80/announce

Miss Bala 2019 720p HDCAM.LLG
Files
Miss Bala 2019 720p HDCAM.LLG.mp4 --- 1.55 GB
SAMPLE.ts --- 2.63 MB


Similar Torrents
Type Name Size Added S L
Cam/TS Miss Bala 2019 720p HDCAM-1XBET
2.45 GB 2019-02-06 20:07:08 936 532
Cam/TS Miss Bala 2019 HDCAM x264 AC3-ETRG
853.96 MB 2019-02-07 10:17:33 449 420
Cam/TS Miss Bala (2019) 720p HDCAM x264-AC3-1XBET [MOVCR]
804.04 MB 2019-02-06 21:28:35 296 223
Cam/TS Miss Bala 2019 720p English HDCAM x264 AAC by Full...
882.11 MB 2019-02-10 12:42:14 37 77

Comments:
No comments still posted
Loading...
Powered by TT | Page Generated In 0.255477 secs.
| RSS Feed | Feed Info