[Login] or [Signup]


Warning! Use a VPN When Downloading Torrents!
Your IP Address is .   Location is
Your Internet Provider is tracking your torrent activity!  Hide your IP ADDRESS with a VPN!
We strongly recommend using Trust.Zone VPN to anonymize your torrenting. It's FREE!
Get VPN Now for FREE!
First Cams

Xvid/x264



Non-English

Loading...

Prospect.2019.HDRip.XviD.AC3.LLG


Complete Name :Prospect.2019.HDRip.XviD.AC3.LLG
Download torrent:    Prospect.2019.HDRip.XviD.AC3.LLG.torrent
Info Hash:5cf2f1d98738057b496e6b9e93a9b3b2094c218b
Category:Movies  > Divx/Xvid
Torrent language:English  
Seeds | Leech:13 | 7
Complete: 79
Health:
Total Size:1.12 GB
Downloaded:11 Times
Added By:      LifeLongg
Date Added:11-02-2019 05:22:pm | Last Edit:  12-02-2019 06:02:pm

 

IMDB
Prospect Park
Prospect Park Released N/A

Genre N/A

Director N/A

Writer N/A

Actors N/A

Plot N/A

Link http://www.imdb.com/title/tt9642730

Last Updated 17-02-2019 04:14:29

Main Technical Comments

Quote:



******************************Thumbnail:**********************



******************************Screenshots:********************

Screenshot 1

Screenshot 2

Screenshot 3

Screenshot 4

Screenshot 5

Screenshot 6

Screenshot 7

Screenshot 8

Screenshot 9

Screenshot 0


******************************************************

Prospect.2019.HDRip.XviD.AC3.LLG.mp4
Format                                   : MPEG-4
Format profile                           : Base Media
Codec ID                                 : isom (isom/iso2/avc1/mp41)
File size                                : 1.11 GiB
Duration                                 : 1 h 39 min
Overall bit rate mode                    : Variable
Overall bit rate                         : 1 597 kb/s


Video
ID                                       : 1
Format                                   : AVC
Format/Info                              : Advanced Video Codec
Format profile                           : [email protected]
Format settings                          : CABAC / 1 Ref Frames
Format settings, CABAC                   : Yes
Format settings, RefFrames               : 1 frame
Codec ID                                 : avc1
Codec ID/Info                            : Advanced Video Coding
Duration                                 : 1 h 39 min
Bit rate mode                            : Variable
Bit rate                                 : 1 209 kb/s
Maximum bit rate                         : 3 600 kb/s
Width                                    : 720 pixels
Height                                   : 384 pixels
Display aspect ratio                     : 1.85:1
Frame rate mode                          : Constant
Frame rate                               : 24.000 FPS
Color space                              : YUV
Chroma subsampling                       : 4:2:0
Bit depth                                : 8 bits
Scan type                                : Progressive
Bits/(Pixel*Frame)                       : 0.182
Stream size                              : 863 MiB (76%)


Audio
ID                                       : 2
Format                                   : AC-3
Format/Info                              : Audio Coding 3
Commercial name                          : Dolby Digital
Codec ID                                 : ac-3
Duration                                 : 1 h 39 min
Bit rate mode                            : Constant
Bit rate                                 : 384 kb/s
Channel(s)                               : 6 channels
Channel layout                           : L R C LFE Ls Rs
Sampling rate                            : 48.0 kHz
Frame rate                               : 31.250 FPS (1536 SPF)
Bit depth                                : 16 bits
Compression mode                         : Lossy
Stream size                              : 274 MiB (24%)
Title                                    : Surround
Language                                 : English
Service kind                             : Complete Main
Default                                  : Yes
Alternate group                          : 1



********************************************************


........................................................................


Loading...


Trackers:
udp://tracker.openbittorrent.com:80/announce

Prospect.2019.HDRip.XviD.AC3.LLG
Files
Prospect.2019.HDRip.XviD.AC3.LLG.mp4 --- 1.11 GB
SAMPLE.ts --- 5.47 MB


Similar Torrents
Type Name Size Added S L
Divx/Xvid Prospect.2019.HDRip.XviD.AC3-EVO
1.34 GB 2019-02-04 22:44:42 8834 5363
Divx/Xvid Prospect.2019.HDRip.XViD-ETRG
709.29 MB 2019-02-04 22:42:44 2694 2169
HD Prospect.2019.1080p.WEB-DL.DD5.1.H264-CMRG[EtHD]
3.89 GB 2019-02-04 22:14:08 1091 937
HD Prospect (2018) 720p Web-DL x264 AAC - Downloadhub
783.00 MB 2019-02-04 23:36:37 458 289
h.264/x264 Prospect.2019.HDRip.XviD.AC3-EVO[EtMovies]
1.34 GB 2019-02-04 21:45:33 283 109
h.264/x264 Prospect.2019.720p.WEB-DL.H264.AC3-EVO[EtHD]
3.09 GB 2019-02-04 21:45:59 257 123
Ebooks Outer Solar System - Prospective Energy and Materi...
73.08 MB 2018-05-02 10:04:21 132 16
h.264/x264 Prospect.2019.HDRip.AC3.X264-CMRG[EtMovies]
1.31 GB 2019-02-04 21:37:38 114 47

Comments:
No comments still posted
Loading...
Powered by TT | Page Generated In 0.642376 secs.
| RSS Feed | Feed Info