[Login] or [Signup]


Warning! Use a VPN When Downloading Torrents!
Your IP Address is .   Location is
Your Internet Provider is tracking your torrent activity!  Hide your IP ADDRESS with a VPN!
We strongly recommend using Trust.Zone VPN to anonymize your torrenting. It's FREE!
Get VPN Now for FREE!
First Cams

Xvid/x264



Non-English

Loading...

The.Cloverfield.Paradox.2018.BDRip.XviD.AC3.LLG


Complete Name :The.Cloverfield.Paradox.2018.BDRip.XviD.AC3.LLG
Download torrent:    The.Cloverfield.Paradox.2018.BDRip.XviD.AC3.LLG.torrent
Info Hash:63f077e486220bf697c2f208826f694c1be90af3
Category:Movies  > Divx/Xvid
Torrent language:English  
Seeds | Leech:9 | 8
Complete: 37
Health:
Total Size:1.16 GB
Downloaded:10 Times
Added By:      LifeLongg
Date Added:12-02-2019 05:47:am | Last Edit:  12-02-2019 07:44:pm

 

Main Technical Comments

Quote:



******************************Thumbnail:**********************



******************************Screenshots:********************

Screenshot 1

Screenshot 2

Screenshot 3

Screenshot 4

Screenshot 5

Screenshot 6

Screenshot 7

Screenshot 8

Screenshot 9

Screenshot 0


******************************************************

The.Cloverfield.Paradox.2018.BDRip.XviD.AC3.LLG.mp4
Format                                   : MPEG-4
Format profile                           : Base Media
Codec ID                                 : isom (isom/iso2/avc1/mp41)
File size                                : 1.13 GiB
Duration                                 : 1 h 41 min
Overall bit rate mode                    : Variable
Overall bit rate                         : 1 588 kb/s

Video
ID                                       : 1
Format                                   : AVC
Format/Info                              : Advanced Video Codec
Format profile                           : [email protected]
Format settings                          : CABAC / 1 Ref Frames
Format settings, CABAC                   : Yes
Format settings, RefFrames               : 1 frame
Codec ID                                 : avc1
Codec ID/Info                            : Advanced Video Coding
Duration                                 : 1 h 41 min
Bit rate mode                            : Variable
Bit rate                                 : 1 201 kb/s
Maximum bit rate                         : 3 600 kb/s
Width                                    : 720 pixels
Height                                   : 304 pixels
Display aspect ratio                     : 2.35:1
Frame rate mode                          : Constant
Frame rate                               : 23.976 (23976/1000) FPS
Color space                              : YUV
Chroma subsampling                       : 4:2:0
Bit depth                                : 8 bits
Scan type                                : Progressive
Bits/(Pixel*Frame)                       : 0.229
Stream size                              : 874 MiB (76%)

Audio
ID                                       : 2
Format                                   : AC-3
Format/Info                              : Audio Coding 3
Commercial name                          : Dolby Digital
Codec ID                                 : ac-3
Duration                                 : 1 h 41 min
Bit rate mode                            : Constant
Bit rate                                 : 384 kb/s
Channel(s)                               : 6 channels
Channel layout                           : L R C LFE Ls Rs
Sampling rate                            : 48.0 kHz
Frame rate                               : 31.250 FPS (1536 SPF)
Bit depth                                : 16 bits
Compression mode                         : Lossy
Stream size                              : 280 MiB (24%)
Title                                    : Surround
Language                                 : English
Service kind                             : Complete Main
Default                                  : Yes
Alternate group                          : 1

********************************************************


........................................................................


Loading...


Trackers:
udp://tracker.openbittorrent.com:80/announce

The.Cloverfield.Paradox.2018.BDRip.XviD.AC3.LLG
Files
SAMPLE.ts --- 35.71 MB
The.Cloverfield.Paradox.2018.BDRip.XviD.AC3.LLG.mp4 --- 1.13 GB


Similar Torrents
Type Name Size Added S L
HD The.Cloverfield.Paradox.2018.720p.WEBRip.x264-STRi...
2.29 GB 2018-03-14 10:46:11 2925 269
Divx/Xvid The.Cloverfield.Paradox.2018.BRRip.XViD-ETRG
704.76 MB 2019-02-02 13:40:31 1420 523
h.264/x264 The.Cloverfield.Paradox.2018.BDRip.AC3.X264-CMRG[E...
1.49 GB 2019-02-02 08:09:25 1066 606
Divx/Xvid The.Cloverfield.Paradox.2018.BDRip.XviD.AC3-EVO
1.41 GB 2019-02-02 13:30:16 713 231
HD The.Cloverfield.Paradox.2018.1080p.BluRay.DTS.X264...
8.81 GB 2019-02-02 11:43:10 285 309
HD The.Cloverfield.Paradox.2018.1080p.Bluray.X264-EVO...
10.19 GB 2019-02-02 13:40:56 140 197
h.264/x264 The.Cloverfield.Paradox.2018.BDRip.x264-VETO[EtMov...
476.87 MB 2019-02-03 23:57:03 106 58
h.264/x264 The.Cloverfield.Paradox.2018.720p.BluRay.x264-VETO...
4.42 GB 2019-02-03 23:57:09 95 108
h.264/x264 The.Cloverfield.Paradox.2018.BDRip.XviD.AC3-EVO[Et...
1.41 GB 2019-02-02 13:31:27 91 51
HD The.Cloverfield.Paradox.2018.1080p.BluRay.x264-VET...
6.64 GB 2019-02-04 00:08:57 83 112

Comments:
No comments still posted
Loading...
Powered by TT | Page Generated In 0.082496 secs.
| RSS Feed | Feed Info