[Login] or [Signup]


Warning! Use a VPN When Downloading Torrents!
Your IP Address is .   Location is
Your Internet Provider is tracking your torrent activity!  Hide your IP ADDRESS with a VPN!
We strongly recommend using Trust.Zone VPN to anonymize your torrenting. It's FREE!
Get VPN Now for FREE!
First Cams

Xvid/x264



Non-English

Loading...

The Lego Movie 2 2019 720p HDCAM.AC3.LLG


Complete Name :The Lego Movie 2 2019 720p HDCAM.AC3.LLG
Download torrent:    The Lego Movie 2 2019 720p HDCAM.AC3.LLG.torrent
Info Hash:9bae2b0deed6f67dda96cd8995906441740e451e
Category:Movies  > Cam/TS
Torrent language:English  
Seeds | Leech:4 | 12
Complete: 57
Health:
Total Size:1.50 GB
Downloaded:10 Times
Added By:      LifeLongg
Date Added:12-02-2019 06:01:am | Last Edit:  12-02-2019 07:44:pm

 

IMDB
The Lego Movie 2: The Second Part
The Lego Movie 2: The Second Part Released 08 Feb 2019

Genre Animation, Action, Adventure, Comedy, Family, Fantasy, Musical

Director Mike Mitchell, Trisha Gum(co-director)

Writer Michelle Morgan (story), Dominic Russo (story), Phil Lord (screenplay), Christopher Miller (screenplay), Matthew Fogel (screenplay), Raphael Bob-Waksberg (screenplay)

Actors Jason Momoa, Alison Brie, Chris Pratt, Stephanie Beatriz

Plot It's been five years since everything was awesome and the citizens are facing a huge new threat: LEGO DUPLO® invaders from outer space, wrecking everything faster than they can rebuild.

Link http://www.imdb.com/title/tt3513498

Last Updated 18-02-2019 16:47:52

Main Technical Comments

Quote:



******************************Thumbnail:**********************



******************************Screenshots:********************

Screenshot 1

Screenshot 2

Screenshot 3

Screenshot 4

Screenshot 5

Screenshot 6

Screenshot 7

Screenshot 8

Screenshot 9

Screenshot 0


******************************************************

The Lego Movie 2 2019 720p HDCAM.AC3.LLG.mp4
Format                                   : MPEG-4
Format profile                           : Base Media
Codec ID                                 : isom (isom/iso2/avc1/mp41)
File size                                : 1.45 GiB
Duration                                 : 1 h 34 min
Overall bit rate mode                    : Variable
Overall bit rate                         : 2 196 kb/s


Video
ID                                       : 1
Format                                   : AVC
Format/Info                              : Advanced Video Codec
Format profile                           : [email protected]
Format settings                          : CABAC / 1 Ref Frames
Format settings, CABAC                   : Yes
Format settings, RefFrames               : 1 frame
Codec ID                                 : avc1
Codec ID/Info                            : Advanced Video Coding
Duration                                 : 1 h 34 min
Bit rate mode                            : Variable
Bit rate                                 : 2 001 kb/s
Maximum bit rate                         : 6 000 kb/s
Width                                    : 1 280 pixels
Height                                   : 536 pixels
Display aspect ratio                     : 2.40:1
Frame rate mode                          : Constant
Frame rate                               : 29.970 (29970/1000) FPS
Original frame rate                      : 29.970 (30000/1001) FPS
Color space                              : YUV
Chroma subsampling                       : 4:2:0
Bit depth                                : 8 bits
Scan type                                : Progressive
Bits/(Pixel*Frame)                       : 0.097
Stream size                              : 1.32 GiB (91%)


Audio
ID                                       : 2
Format                                   : AC-3
Format/Info                              : Audio Coding 3
Commercial name                          : Dolby Digital
Codec ID                                 : ac-3
Duration                                 : 1 h 34 min
Bit rate mode                            : Constant
Bit rate                                 : 192 kb/s
Channel(s)                               : 2 channels
Channel layout                           : L R
Sampling rate                            : 48.0 kHz
Frame rate                               : 31.250 FPS (1536 SPF)
Bit depth                                : 16 bits
Compression mode                         : Lossy
Stream size                              : 130 MiB (9%)
Service kind                             : Complete Main
Default                                  : Yes
Alternate group                          : 1




********************************************************


........................................................................


Loading...


Trackers:
udp://tracker.openbittorrent.com:80/announce

The Lego Movie 2 2019 720p HDCAM.AC3.LLG
Files
SAMPLE.ts --- 46.62 MB
The Lego Movie 2 2019 720p HDCAM.AC3.LLG.mp4 --- 1.45 GB


Similar Torrents
Type Name Size Added S L
Cam/TS The Lego Movie 2 2019 HDCAM XViD AC3-ETRG
1.19 GB 2019-02-11 12:58:02 1391 865
Cam/TS The Lego Movie 2 2019 720p HDCAM-1XBET
2.44 GB 2019-02-11 06:06:18 413 239
Cam/TS The Lego Movie 2 (2019) 720p HDCAM X264-AC3-Will18...
730.70 MB 2019-02-11 06:24:27 338 180
Cam/TS The Lego Movie 2 2019 HDCAM v2-1XBET
1.38 GB 2019-02-12 21:39:52 149 70
4K The LEGO Ninjago Movie (2017) x 1600 (2160p) HDR 5...
2.27 GB 2018-06-28 15:09:21 53 0
Ebooks Building a Global Learning Organization: Using TWI...
9.64 MB 2018-11-22 23:07:24 41 5
4K The.LEGO.Movie.2014.4K.HDR.2160p.BDRip Ita Eng x26...
5.59 GB 2019-01-10 12:36:08 23 33

Comments:
No comments still posted
Loading...
Powered by TT | Page Generated In 0.270053 secs.
| RSS Feed | Feed Info