[Login] or [Signup]


Warning! Use a VPN When Downloading Torrents!
Your IP Address is .   Location is
Your Internet Provider is tracking your torrent activity!  Hide your IP ADDRESS with a VPN!
We strongly recommend using Trust.Zone VPN to anonymize your torrenting. It's FREE!
Get VPN Now for FREE!
First Cams

Xvid/x264



Non-English

Loading...

1985.2018.BRRip.XviD.AC3.LLG


Complete Name :1985.2018.BRRip.XviD.AC3.LLG
Download torrent:    1985.2018.BRRip.XviD.AC3.LLG.torrent
Info Hash:3391f1ed715904c59bdd0df1ce21e36e5004cffa
Category:Movies  > Divx/Xvid
Torrent language:English  
Seeds | Leech:2 | 3
Complete: 6
Health:
Total Size:1.12 GB
Downloaded:11 Times
Added By:      LifeLongg
Date Added:12-02-2019 06:59:am | Last Edit:  12-02-2019 08:48:pm

 

IMDB
1985
1985 Released 09 Mar 2018

Genre Drama

Director Yen Tan

Writer Hutch (story by), Yen Tan (screenplay), Yen Tan (story by)

Actors Jamie Chung, Virginia Madsen, Cory Michael Smith, Bill Heck

Plot A closeted young man goes home for the holidays and struggles to reveal his dire circumstances to his conservative family.

Link http://www.imdb.com/title/tt6411590

Last Updated 21-02-2019 12:37:57
6.7

Votes 500

Main Technical Comments

Quote:



******************************Thumbnail:**********************



******************************Screenshots:********************

Screenshot 1

Screenshot 2

Screenshot 3

Screenshot 4

Screenshot 5

Screenshot 6

Screenshot 7

Screenshot 8

Screenshot 9

Screenshot 0


******************************************************

1985.2018.BRRip.XviD.AC3.LLG.mp4
Format                                   : MPEG-4
Format profile                           : Base Media
Codec ID                                 : isom (isom/iso2/avc1/mp41)
File size                                : 1.11 GiB
Duration                                 : 1 h 25 min
Overall bit rate mode                    : Variable
Overall bit rate                         : 1 848 kb/s
Writing application                      : Lavf57.83.100

Video
ID                                       : 1
Format                                   : AVC
Format/Info                              : Advanced Video Codec
Format profile                           : [email protected]
Format settings                          : CABAC / 1 Ref Frames
Format settings, CABAC                   : Yes
Format settings, RefFrames               : 1 frame
Codec ID                                 : avc1
Codec ID/Info                            : Advanced Video Coding
Duration                                 : 1 h 25 min
Bit rate mode                            : Variable
Bit rate                                 : 1 460 kb/s
Maximum bit rate                         : 4 500 kb/s
Width                                    : 720 pixels
Height                                   : 430 pixels
Display aspect ratio                     : 5:3
Frame rate mode                          : Constant
Frame rate                               : 24.000 FPS
Color space                              : YUV
Chroma subsampling                       : 4:2:0
Bit depth                                : 8 bits
Scan type                                : Progressive
Bits/(Pixel*Frame)                       : 0.197
Stream size                              : 896 MiB (79%)
Codec configuration box                  : avcC

Audio
ID                                       : 2
Format                                   : AC-3
Format/Info                              : Audio Coding 3
Commercial name                          : Dolby Digital
Codec ID                                 : ac-3
Duration                                 : 1 h 25 min
Bit rate mode                            : Constant
Bit rate                                 : 384 kb/s
Channel(s)                               : 6 channels
Channel layout                           : L R C LFE Ls Rs
Sampling rate                            : 48.0 kHz
Frame rate                               : 31.250 FPS (1536 SPF)
Bit depth                                : 16 bits
Compression mode                         : Lossy
Stream size                              : 236 MiB (21%)
Service kind                             : Complete Main
Default                                  : Yes
Alternate group                          : 1




********************************************************


........................................................................


Loading...


Trackers:
udp://tracker.openbittorrent.com:80/announce

1985.2018.BRRip.XviD.AC3.LLG
Files
1985.2018.BRRip.XviD.AC3.LLG.mp4 --- 1.11 GB
SAMPLE.ts --- 12.88 MB


Similar Torrents
Type Name Size Added S L
Divx/Xvid 1985.2018.HDRip.XviD.AC3-EVO
1.23 GB 2018-12-19 23:42:44 932 264
Divx/Xvid 1985.2018.BRRip.XviD.AC3-EVO
1.26 GB 2019-01-31 13:59:57 310 330
h.264/x264 1985.2018.BRRip.XviD.AC3-EVO[EtMovies]
1.26 GB 2019-01-31 14:29:49 184 54
Divx/Xvid 1985.2018.HDRip.XviD.AC3-EVO
1.23 GB 2018-12-19 23:51:56 63 4
Divx/Xvid 1985.2018.HDRip.XviD.AC3.LLG
1,017.14 MB 2018-12-20 15:24:52 3 2

Comments:
No comments still posted
Loading...
Powered by TT | Page Generated In 0.695350 secs.
| RSS Feed | Feed Info