[Login] or [Signup]


Warning! Use a VPN When Downloading Torrents!
Your IP Address is .   Location is
Your Internet Provider is tracking your torrent activity!  Hide your IP ADDRESS with a VPN!
We strongly recommend using Trust.Zone VPN to anonymize your torrenting. It's FREE!
Get VPN Now for FREE!
First Cams

Xvid/x264



Non-English

Loading...

Alita.Battle.Angel.2019.720p.HDCAM.LLG


Complete Name :Alita.Battle.Angel.2019.720p.HDCAM.LLG
Download torrent:    Alita.Battle.Angel.2019.720p.HDCAM.LLG.torrent
Info Hash:28e794393a98e4b4ef5fbe47a4aad2244eacca93
Category:Movies  > Cam/TS
Torrent language:English  
Seeds | Leech:92 | 155
Complete: 263
Health:
Total Size:1.37 GB
Downloaded:11 Times
Added By:      LifeLongg
Date Added:12-02-2019 08:36:am | Last Edit:  12-02-2019 08:43:pm

 

Main Technical Comments

Quote:



******************************Thumbnail:**********************



******************************Screenshots:********************

Screenshot 1

Screenshot 2

Screenshot 3

Screenshot 4

Screenshot 5

Screenshot 6

Screenshot 7

Screenshot 8

Screenshot 9

Screenshot 0


******************************************************

Alita.Battle.Angel.2019.720p.HDCAM.LLG.mp4
Format                                   : MPEG-4
Format profile                           : Base Media
Codec ID                                 : isom (isom/iso2/avc1/mp41)
File size                                : 1.36 GiB
Duration                                 : 1 h 59 min
Overall bit rate mode                    : Variable
Overall bit rate                         : 1 633 kb/s


Video
ID                                       : 1
Format                                   : AVC
Format/Info                              : Advanced Video Codec
Format profile                           : [email protected]
Format settings                          : CABAC / 1 Ref Frames
Format settings, CABAC                   : Yes
Format settings, RefFrames               : 1 frame
Codec ID                                 : avc1
Codec ID/Info                            : Advanced Video Coding
Duration                                 : 1 h 59 min
Bit rate mode                            : Variable
Bit rate                                 : 1 497 kb/s
Maximum bit rate                         : 4 500 kb/s
Width                                    : 1 280 pixels
Height                                   : 536 pixels
Display aspect ratio                     : 2.40:1
Frame rate mode                          : Constant
Frame rate                               : 29.970 (29970/1000) FPS
Original frame rate                      : 29.970 (30000/1001) FPS
Color space                              : YUV
Chroma subsampling                       : 4:2:0
Bit depth                                : 8 bits
Scan type                                : Progressive
Bits/(Pixel*Frame)                       : 0.073
Stream size                              : 1.25 GiB (92%)

Audio
ID                                       : 2
Format                                   : AAC LC
Format/Info                              : Advanced Audio Codec Low Complexity
Codec ID                                 : mp4a-40-2
Duration                                 : 1 h 59 min
Bit rate mode                            : Constant
Bit rate                                 : 129 kb/s
Channel(s)                               : 2 channels
Channel layout                           : L R
Sampling rate                            : 48.0 kHz
Frame rate                               : 46.875 FPS (1024 SPF)
Compression mode                         : Lossy
Stream size                              : 110 MiB (8%)
Default                                  : Yes




********************************************************


........................................................................


Loading...


Trackers:
udp://tracker.openbittorrent.com:80/announce

Alita.Battle.Angel.2019.720p.HDCAM.LLG
Files
Alita.Battle.Angel.2019.720p.HDCAM.LLG.mp4 --- 1.36 GB
SAMPLE.mp4 --- 9.35 MB


Similar Torrents
Type Name Size Added S L
Cam/TS Alita Battle Angel 2019 HDCAM XViD AC3-ETRG
1.29 GB 2019-02-09 10:33:44 3685 3719
Cam/TS Alita Battle Angel 2019 720p HDCAM-1XBET
2.42 GB 2019-02-08 17:31:55 2562 1940
Cam/TS Alita Battle Angel 2019 720p HDCAM LATINO-1XBET
1.76 GB 2019-02-11 10:21:52 1740 1256
Cam/TS Alita Battle Angel 2019 720p HDCAM x264 [MW]
1.01 GB 2019-02-10 13:27:09 1333 639
Dubs/Dual Audio Alita Battle Angel 2019 720p HDCAM x264 Dual Audio...
1.12 GB 2019-02-10 09:17:28 988 625
Dubs/Dual Audio Alita Battle Angel (2019) 720p HDCAM [Hindi (Clean...
954.83 MB 2019-02-09 11:55:06 891 403
Cam/TS Alita Battle Angel (2019) 720p HDCAM X264-AC3- 1XB...
843.07 MB 2019-02-08 17:27:05 715 472
Cam/TS Alita Battle Angel (2019) 720p HDCAM X264-AC3 - Wi...
1.01 GB 2019-02-08 22:41:01 654 477
Cam/TS Alita Battle Angel (2019) 720p English HDCAM x264 ...
757.59 MB 2019-02-10 12:57:19 347 297
Cam/TS Alita Battle Angel (2019) 720p Hindi Dubbed (Clean...
762.44 MB 2019-02-10 12:16:05 77 78

Comments:
No comments still posted
Loading...
Powered by TT | Page Generated In 0.081819 secs.
| RSS Feed | Feed Info