[Login] or [Signup]


Warning! Use a VPN When Downloading Torrents!
Your IP Address is .   Location is
Your Internet Provider is tracking your torrent activity!  Hide your IP ADDRESS with a VPN!
We strongly recommend using Trust.Zone VPN to anonymize your torrenting. It's FREE!
Get VPN Now for FREE!
First Cams

Xvid/x264



Non-English

Loading...

Zero 2018 Hindi 720p PRE-DVDRip x264 [MW]


Complete Name :Zero 2018 Hindi 720p PRE-DVDRip x264 [MW]
Download torrent:    Zero 2018 Hindi 720p PRE-DVDRip x264 [MW].torrent
Info Hash:653be545312a05f83a20662c28c9f4aeb57c0da7
Category:Movies  > Non-English
Torrent language:Hindi  
Seeds | Leech:1,575 | 1,072
Complete: 6,125
Health:
Total Size:1.18 GB
Downloaded:110 Times
Added By:      MovieFreak
Date Added:22-12-2018 11:21:am | Last Edit:  13-01-2019 02:01:am

 

IMDB
Zero
Zero Released N/A

Genre Short, Thriller

Director Rodrigo Badoino

Writer N/A

Actors Michael Grocholsky

Plot N/A

Link http://www.imdb.com/title/tt9173964

Last Updated 16-01-2019 09:52:31

Main Technical Comments




General
Format                                   : Matroska
Format version                           : Version 4 / Version 2
File size                                : 1.18 GiB
Duration                                 : 2 h 30 min
Overall bit rate                         : 1 126 kb/s

Video
ID                                       : 1
Format                                   : AVC
Format/Info                              : Advanced Video Codec
Format profile                           : [email protected]
Format settings                          : CABAC / 4 Ref Frames
Format settings, CABAC                   : Yes
Format settings, RefFrames               : 4 frames
Codec ID                                 : V_MPEG4/ISO/AVC
Duration                                 : 2 h 30 min
Bit rate                                 : 1 000 kb/s
Width                                    : 1 280 pixels
Height                                   : 544 pixels
Display aspect ratio                     : 2.35:1
Frame rate mode                          : Constant
Frame rate                               : 25.000 FPS
Color space                              : YUV
Chroma subsampling                       : 4:2:0
Bit depth                                : 8 bits
Scan type                                : Progressive
Bits/(Pixel*Frame)                       : 0.057
Stream size                              : 1.04 GiB (88%)
Writing library                          : x264 core 155 r2901 7d0ff22
Default                                  : Yes
Forced                                   : No

Audio
ID                                       : 2
Format                                   : AAC
Format/Info                              : Advanced Audio Codec
Format profile                           : LC
Codec ID                                 : A_AAC-2
Duration                                 : 2 h 30 min
Bit rate                                 : 129 kb/s
Channel(s)                               : 2 channels
Channel positions                        : Front: L R
Sampling rate                            : 48.0 kHz
Frame rate                               : 46.875 FPS (1024 SPF)
Compression mode                         : Lossy
Stream size                              : 138 MiB (11%)
Language                                 : Hindi
Default                                  : Yes
Forced                                   : No


Click To View Image

http://pichub.site/image/kOE3I
http://pichub.site/image/kOV88
http://pichub.site/image/kOclJ
http://pichub.site/image/kOkq5
http://pichub.site/image/kOyyh
http://pichub.site/image/kOhFr

........................................................................


Loading...


Trackers:
udp://tracker.coppersurfer.tk:6969/announce

Zero 2018 Hindi 720p PRE-DVDRip x264 [MW]
Files
Zero 2018 Hindi 720p PRE-DVDRip x264 [MW].mkv --- 1.18 GB


Similar Torrents
Type Name Size Added S L
Divx/Xvid Patient.Zero.2018.HDRip.XviD.AC3-EVO
1.29 GB 2018-08-12 20:56:06 9944 3925
HD Patient.Zero.2018.1080p.WEB-DL.DD5.1.H264-CMRG[EtH...
2.98 GB 2018-08-12 21:12:44 3032 994
Divx/Xvid Ghost Source Zero.2018.HDRip.XviD.AC3-EVO
1.39 GB 2018-09-29 12:54:01 1227 410
Divx/Xvid Island.Zero.2018.HDRip.XviD.AC3-EVO
1.31 GB 2018-05-15 11:59:10 900 202
Non-English ZERO.2018.Hindi.PreDVDRip.720p.X264.AAC.LLG
1.11 GB 2018-12-23 17:29:02 831 739
Divx/Xvid Patient.Zero.2018.BDRip.XviD.AC3-EVO
1.26 GB 2018-10-10 17:48:35 695 182
h.264/x264 Zero 2018 Hindi 720p PRE-DVDRip x264 AAC { TaRa }....
1.36 GB 2018-12-21 16:24:03 438 595
HD Patient Zero 2018 1080p WEB-DL DD 5.1 x264 [MW]
1.74 GB 2018-08-13 21:54:35 399 81
h.264/x264 Night.Zero.2018.HDRip.XviD.AC3-EVO[EtMovies]
1.28 GB 2018-11-27 16:16:58 393 116
HD Patient Zero 2018 720p BRRip x264 ESub [MW]
808.00 MB 2018-10-18 18:09:22 393 119

Comments:
No comments still posted
Loading...
Powered by TT | Page Generated In 0.608207 secs.
| RSS Feed | Feed Info