[Login] or [Signup]


Warning! Use a VPN When Downloading Torrents!
Your IP Address is .   Location is
Your Internet Provider is tracking your torrent activity!  Hide your IP ADDRESS with a VPN!
We strongly recommend using Trust.Zone VPN to anonymize your torrenting. It's FREE!
Get VPN Now for FREE!
First Cams

Xvid/x264



Non-English

Loading...

ZERO.2018.Hindi.PreDVDRip.720p.X264.AAC.LLG


Complete Name :ZERO.2018.Hindi.PreDVDRip.720p.X264.AAC.LLG
Download torrent:    ZERO.2018.Hindi.PreDVDRip.720p.X264.AAC.LLG.torrent
Info Hash:be3b0a0784a843bdc433f487c0017c073e564ce4
Category:Movies  > Non-English
Torrent language:English  
Seeds | Leech:831 | 739
Complete: 2,455
Health:
Total Size:1.11 GB
Downloaded:12 Times
Added By:      LifeLongg
Date Added:23-12-2018 05:29:pm | Last Edit:  13-01-2019 02:01:am

 

IMDB
Zero
Zero Released N/A

Genre Short, Thriller

Director Rodrigo Badoino

Writer N/A

Actors Michael Grocholsky

Plot N/A

Link http://www.imdb.com/title/tt9173964

Last Updated 16-01-2019 11:02:05

Main Technical Comments

Quote:



******************************Thumbnail:**********************



******************************Screenshots:********************

Screenshot 1

Screenshot 2

Screenshot 3

Screenshot 4

Screenshot 5

Screenshot 6

Screenshot 7

Screenshot 8

Screenshot 9

Screenshot 0


******************************************************

ZERO.2018.Hindi.PreDVDRip.720p.X264.AAC.LLG.mp4
Format                                   : MPEG-4
Format profile                           : Base Media
Codec ID                                 : isom (isom/iso2/avc1/mp41)
File size                                : 1.11 GiB
Duration                                 : 2 h 30 min
Overall bit rate mode                    : Variable
Overall bit rate                         : 1 056 kb/s


Video
ID                                       : 1
Format                                   : AVC
Format/Info                              : Advanced Video Codec
Format profile                           : [email protected]
Format settings                          : CABAC / 1 Ref Frames
Format settings, CABAC                   : Yes
Format settings, RefFrames               : 1 frame
Codec ID                                 : avc1
Codec ID/Info                            : Advanced Video Coding
Duration                                 : 2 h 30 min
Bit rate mode                            : Variable
Bit rate                                 : 919 kb/s
Maximum bit rate                         : 2 700 kb/s
Width                                    : 1 280 pixels
Height                                   : 544 pixels
Display aspect ratio                     : 2.35:1
Frame rate mode                          : Constant
Frame rate                               : 25.000 FPS
Color space                              : YUV
Chroma subsampling                       : 4:2:0
Bit depth                                : 8 bits
Scan type                                : Progressive
Bits/(Pixel*Frame)                       : 0.053
Stream size                              : 986 MiB (87%)
Language                                 : Hindi

Audio
ID                                       : 2
Format                                   : AAC LC
Format/Info                              : Advanced Audio Codec Low Complexity
Codec ID                                 : mp4a-40-2
Duration                                 : 2 h 30 min
Bit rate mode                            : Constant
Bit rate                                 : 132 kb/s
Channel(s)                               : 2 channels
Channel layout                           : L R
Sampling rate                            : 44.1 kHz
Frame rate                               : 43.066 FPS (1024 SPF)
Compression mode                         : Lossy
Stream size                              : 140 MiB (12%)
Language                                 : Hindi
Default                                  : Yes





******************************************************


........................................................................


Loading...


Trackers:
udp://tracker.openbittorrent.com:80/announce

ZERO.2018.Hindi.PreDVDRip.720p.X264.AAC.LLG
Files
SAMPLE.mp4 --- 7.66 MB
ZERO.2018.Hindi.PreDVDRip.720p.X264.AAC.LLG.mp4 --- 1.11 GB


Similar Torrents
Type Name Size Added S L
Divx/Xvid Patient.Zero.2018.HDRip.XviD.AC3-EVO
1.29 GB 2018-08-12 20:56:06 9944 3925
HD Patient.Zero.2018.1080p.WEB-DL.DD5.1.H264-CMRG[EtH...
2.98 GB 2018-08-12 21:12:44 3032 994
Non-English Zero 2018 Hindi 720p PRE-DVDRip x264 [MW]
1.18 GB 2018-12-22 11:21:13 1575 1072
Divx/Xvid Ghost Source Zero.2018.HDRip.XviD.AC3-EVO
1.39 GB 2018-09-29 12:54:01 1227 410
Divx/Xvid Island.Zero.2018.HDRip.XviD.AC3-EVO
1.31 GB 2018-05-15 11:59:10 900 202
Divx/Xvid Patient.Zero.2018.BDRip.XviD.AC3-EVO
1.26 GB 2018-10-10 17:48:35 695 182
h.264/x264 Zero 2018 Hindi 720p PRE-DVDRip x264 AAC { TaRa }....
1.36 GB 2018-12-21 16:24:03 438 595
HD Patient Zero 2018 1080p WEB-DL DD 5.1 x264 [MW]
1.74 GB 2018-08-13 21:54:35 399 81
h.264/x264 Night.Zero.2018.HDRip.XviD.AC3-EVO[EtMovies]
1.28 GB 2018-11-27 16:16:58 393 116
HD Patient Zero 2018 720p BRRip x264 ESub [MW]
808.00 MB 2018-10-18 18:09:22 393 119

Comments:
No comments still posted
Loading...
Powered by TT | Page Generated In 0.243163 secs.
| RSS Feed | Feed Info