[Login] or [Signup]


Warning! Use a VPN When Downloading Torrents!
Your IP Address is .   Location is
Your Internet Provider is tracking your torrent activity!  Hide your IP ADDRESS with a VPN!
We strongly recommend using Trust.Zone VPN to anonymize your torrenting. It's FREE!
Get VPN Now for FREE!
First Cams

Xvid/x264



Non-English

Loading...

The Dangerous Book For Boys 2018 S01 x264 720p Msub Italian English Hindi GOPISAHI


Complete Name :The Dangerous Book For Boys 2018 S01 x264 720p Msub Italian English Hindi GOPISAHI
Download torrent:    The Dangerous Book For Boys 2018 S01 x264 720p Msub Italian English Hindi GOPISAHI.torrent
Info Hash:377af4b8c4a895f5fa42aae677b57a5de380355a
Category:Movies  > Dubs/Dual Audio
Torrent language:Hindi  
Seeds | Leech:559 | 441
Complete: 1,222
Health:
Total Size:1.15 GB
Downloaded:16 Times
Added By:      GOPISAHI
Date Added:28-12-2018 04:07:pm | Last Edit:  27-01-2019 02:01:am

 

IMDB
The Dangerous Book for Boys
The Dangerous Book for Boys Released 30 Mar 2018

Genre Comedy, Drama, Family

Director N/A

Writer Bryan Cranston, Greg Mottola

Actors Chris Diamantopoulos, Gabriel Bateman, Drew Powell, Kyan Zielinski

Plot The story of a middle-class family coping with the sudden passing of their beloved patriarch Patrick, a whimsical inventor who touched the lives of all who knew him. Devastated, his family ...

Link http://www.imdb.com/title/tt1082583

Last Updated 19-02-2019 22:53:38
6.1

Votes 283

Main Technical Comments
http://www.gopisahi.pw/

Format                         : Matroska
Format version                 : Version 4 / Version 2
File size                      : 222 MiB
Duration                       : 31 min 19 s
Overall bit rate               : 992 kb/s
Movie name                     : The Dangerous Book For Boys S01 GOPISAHI

Video
Format                         : AVC
Format/Info                    : Advanced Video Codec
Codec ID                       : V_MPEG4/ISO/AVC
Duration                       : 31 min 19 s
Bit rate                       : 699 kb/s
Width                          : 1 280 pixels
Height                         : 720 pixels
Display aspect ratio           : 16:9
Frame rate mode                : Constant
Frame rate                     : 23.976 (24000/1001) FPS
Color space                    : YUV
Chroma subsampling             : 4:2:0
Bit depth                      : 8 bits
Scan type                      : Progressive
Bits/(Pixel*Frame)             : 0.032
Stream size                    : 157 MiB (70%)
Title                          : GOPISAHI
Writing library                : x264 core 155 r2901 7d0ff22

Audio #1
Format                         : AAC
Duration                       : 31 min 19 s
Bit rate                       : 96.0 kb/s
Channel(s)                     : 2 channels
Channel positions              : Front: L R
Sampling rate                  : 48.0 kHz
Frame rate                     : 46.875 FPS (1024 SPF)
Compression mode               : Lossy
Delay relative to video        : -21 ms
Stream size                    : 21.6 MiB (10%)
Title                          : GOPISAHI
Language                       : Hindi

Audio #2
Format                         : AAC
Duration                       : 31 min 19 s
Bit rate                       : 96.0 kb/s
Channel(s)                     : 2 channels
Channel positions              : Front: L R
Sampling rate                  : 48.0 kHz
Frame rate                     : 46.875 FPS (1024 SPF)
Compression mode               : Lossy
Delay relative to video        : -21 ms
Stream size                    : 21.5 MiB (10%)
Title                          : GOPISAHI
Language                       : English

Audio #3
Format                         : AAC
Duration                       : 31 min 19 s
Bit rate                       : 96.0 kb/s
Channel(s)                     : 2 channels
Channel positions              : Front: L R
Sampling rate                  : 48.0 kHz
Frame rate                     : 46.875 FPS (1024 SPF)
Compression mode               : Lossy
Delay relative to video        : -21 ms
Stream size                    : 21.5 MiB (10%)
Title                          : GOPISAHI
Language                       : Italian

Text #1
ID                             : 4
Title                          : English [SDH]
Language                       : English

Text #2
ID                             : 5
Title                          : Castilian [Forced]
Language                       : Spanish

Text #3
ID                             : 6
Language                       : Spanish

Text #4
ID                             : 7
Language                       : Spanish

Text #5
ID                             : 8
Language                       : Spanish

Text #6
ID                             : 9
Language                       : French

Text #7
ID                             : 10
Language                       : French

Text #8
Language                       : German

Text #9
Language                       : German

Text #10
Language                       : Italian

Text #11
Language                       : Italian

Text #12
Language                       : Hindi

Text #13
Language                       : Hindi

Text #14
Language                       : Japanese

Text #15
Language                       : Japanese

Menu
00:00:00.000                   : en:Amazon Original
00:00:06.006                   : en:Beth calls a family meeting
00:04:11.042                   : en:Opening Credits
00:04:51.208                   : en:Uncle Terry is introduced to Wyatt
00:07:52.013                   : en:A special gift for Wyatt and his brothers
00:11:28.271                   : en:The first chapter for Wyatt
00:15:31.097                   : en:The boys are back to school
00:18:50.129                   : en:Tiffany explains to Wyatt why nobody talks about Patrick
00:23:26.030                   : en:The McKennas decide to talk about Patrick
00:26:56.115                   : en:The McKennas throw a party
00:29:43.323                   : en:End Credits


........................................................................


Loading...


Trackers:
udp://tracker.coppersurfer.tk:6969/announce

The Dangerous Book For Boys 2018 S01 x264 720p Msub Italian English Hindi GOPISAHI
Files
The Dangerous Book For Boys S01e01 GOPISAHI.mkv --- 222.27 MB
The Dangerous Book For Boys S01e02 GOPISAHI.mkv --- 201.68 MB
The Dangerous Book For Boys S01e03 GOPISAHI.mkv --- 187.52 MB
The Dangerous Book For Boys S01e04 GOPISAHI.mkv --- 189.76 MB
The Dangerous Book For Boys S01e05 GOPISAHI.mkv --- 198.46 MB
The Dangerous Book For Boys S01e06 GOPISAHI.mkv --- 176.70 MB


Similar Torrents
Type Name Size Added S L
h.264/x264 Illuminati Exposed - Hell's Bells: The Dangers of ...
1.09 GB 2018-06-11 03:15:19 111 56
HD The.Dangerous.Hunter.(2018).WEBHD.Untouched.720p.H...
942.65 MB 2018-09-11 21:58:29 109 138
Ebooks The Dangerous Passion - Why Jealousy Is as Necessa...
411.59 kB 2018-07-03 18:30:58 106 9
HD The.Dangerous.Hunter.(2018).WEBHD.Untouched.1080p....
1.39 GB 2018-09-11 21:58:06 76 121
Other Smart Meters. The Dangers of WiFi Radiation
17.49 MB 2018-10-07 22:42:19 53 9
Other The Danger of Your TV Set and Human Trafficking an...
29.54 MB 2018-09-24 06:53:05 24 8

Comments:
No comments still posted
Loading...
Powered by TT | Page Generated In 0.623242 secs.
| RSS Feed | Feed Info