[Login] or [Signup]


Warning! Use a VPN When Downloading Torrents!
Your IP Address is .   Location is
Your Internet Provider is tracking your torrent activity!  Hide your IP ADDRESS with a VPN!
We strongly recommend using Trust.Zone VPN to anonymize your torrenting. It's FREE!
Get VPN Now for FREE!
First Cams

Xvid/x264



Non-English

Loading...

Crisscross [2018] Bengali Movie 720P Webdl ACC x264 (Cineweb)


Complete Name :Crisscross [2018] Bengali Movie 720P Webdl ACC x264 (Cineweb)
Download torrent:    Crisscross [2018] Bengali Movie 720P Webdl ACC x264 (Cineweb).torrent
Info Hash:b8a3c507fff7381d7a8dc87c466cced4a5eddd74
Category:Movies  > Non-English
Torrent language:English  
Seeds | Leech:18 | 5
Complete: 32
Health:
Total Size:1.35 GB
Downloaded:12 Times
Added By:      ittorrent
Date Added:07-01-2019 06:56:am | Last Edit:  13-01-2019 02:01:am

 

IMDB
Crisscross
Crisscross Released 10 Aug 2018

Genre Drama

Director Birsa Dasgupta

Writer N/A

Actors Jaya Ahsan, Mimi Chakraborty, Nusrat Jahan, Priyanka Sarkar

Plot Five interrelated women and the men in their lives, each having a separate tale and contrasting behaviour, experience catastrophic life events, which leads to introspection in the city of ...

Link http://www.imdb.com/title/tt8665840

Last Updated 16-01-2019 10:30:22
6.2

Votes 6

Main Technical Comments
For Direct Links Download & Google Drive Download Link Visit Cineweb.net



Cineweb.net


Crisscross [2018] Bengali Movie 720P Webdl ACC x264 (Cineweb)







General
Complete name                            : Crisscross [2018] Bengali Movie 720P Webdl ACC x264 (Cinweb).m4v
Format                                   : MPEG-4
Format profile                           : Base Media / Version 2
Codec ID                                 : mp42 (isom/iso2/avc1/mp41)
File size                                : 1.35 GiB
Duration                                 : 1 h 53 min
Overall bit rate mode                    : Variable
Overall bit rate                         : 1 705 kb/s
Encoded date                             : UTC 2019-01-05 16:36:25
Tagged date                              : UTC 2019-01-05 16:36:25
Writing application                      : HandBrake 1.1.2 2018090500

Video
ID                                       : 1
Format                                   : AVC
Format/Info                              : Advanced Video Codec
Format profile                           : [email protected]
Format settings, CABAC                   : Yes
Format settings, ReFrames                : 4 frames
Codec ID                                 : avc1
Codec ID/Info                            : Advanced Video Coding
Duration                                 : 1 h 53 min
Bit rate                                 : 1 500 kb/s
Width                                    : 1 280 pixels
Height                                   : 544 pixels
Display aspect ratio                     : 16:9
Original display aspect ratio            : 16:9
Frame rate mode                          : Variable
Frame rate                               : 23.976 (24000/1001) FPS
Minimum frame rate                       : 23.974 FPS
Maximum frame rate                       : 23.981 FPS
Color space                              : YUV
Chroma subsampling                       : 4:2:0
Bit depth                                : 8 bits
Scan type                                : Progressive
Bits/(Pixel*Frame)                       : 0.090
Stream size                              : 1.19 GiB (88%)
Writing library                          : x264 core 155 r2901 7d0ff22
Encoding settings                        : cabac=1 / ref=3 / deblock=1:0:0 / analyse=0x1:0x111 / me=hex / subme=7 / psy=1 / psy_rd=1.00:0.00 / mixed_ref=1 / me_range=16 / chroma_me=1 / trellis=1 / 8x8dct=0 / cqm=0 / deadzone=21,11 / fast_pskip=1 / chroma_qp_offset=-2 / threads=9 / lookahead_threads=1 / sliced_threads=0 / nr=0 / decimate=1 / interlaced=0 / bluray_compat=0 / constrained_intra=0 / bframes=3 / b_pyramid=2 / b_adapt=1 / b_bias=0 / direct=1 / weightb=1 / open_gop=0 / weightp=2 / keyint=240 / keyint_min=24 / scenecut=40 / intra_refresh=0 / rc_lookahead=40 / rc=abr / mbtree=1 / bitrate=1500 / ratetol=1.0 / qcomp=0.60 / qpmin=0 / qpmax=69 / qpstep=4 / vbv_maxrate=20000 / vbv_bufsize=25000 / nal_hrd=none / filler=0 / ip_ratio=1.40 / aq=1:1.00
Encoded date                             : UTC 2019-01-05 16:36:25
Tagged date                              : UTC 2019-01-05 16:36:25
Color range                              : Limited
Color primaries                          : BT.709
Transfer characteristics                 : BT.709
Matrix coefficients                      : BT.709

Audio
ID                                       : 2
Format                                   : AAC
Format/Info                              : Advanced Audio Codec
Format profile                           : LC
Codec ID                                 : 40
Duration                                 : 1 h 53 min
Bit rate mode                            : Variable
Bit rate                                 : 192 kb/s
Channel(s)                               : 2 channels
Channel positions                        : Front: L R
Sampling rate                            : 48.0 kHz
Frame rate                               : 46.875 FPS (1024 spf)
Compression mode                         : Lossy
Stream size                              : 155 MiB (11%)
Title                                    : Stereo / Stereo
Language                                 : English
Default                                  : Yes
Alternate group                          : 1
Encoded date                             : UTC 2019-01-05 16:36:25
Tagged date                              : UTC 2019-01-05 16:36:25

........................................................................


Loading...


Trackers:
udp://tracker.coppersurfer.tk:6969/announce

Crisscross [2018] Bengali Movie 720P Webdl ACC x264 (Cineweb)
Files
Crisscross [2018] Bengali Movie 720P Webdl ACC x264 (Cinweb.net).m4v --- 1.35 GB


Similar Torrents
Type Name Size Added S L
Non-English Crisscross (2018) Bengali Movie HDRip [NO Harbal A...
822.66 MB 2018-11-30 22:20:03 637 278
HD Crisscross 2018 ‎Bengali 720p WEB-DL x264 AAC { ...
1,004.09 MB 2018-12-03 20:05:14 65 70

Comments:
No comments still posted
Loading...
Powered by TT | Page Generated In 0.611836 secs.
| RSS Feed | Feed Info