[Login] or [Signup]


Warning! Use a VPN When Downloading Torrents!
Your IP Address is .   Location is
Your Internet Provider is tracking your torrent activity!  Hide your IP ADDRESS with a VPN!
We strongly recommend using Trust.Zone VPN to anonymize your torrenting. It's FREE!
Get VPN Now for FREE!
First Cams

Xvid/x264



Non-English

Loading...

Khatron Ke Khiladi Season 09 - Episode 01,Episode 02 WEB-DL x264 AAC { TaRa }.mkv


Complete Name :Khatron Ke Khiladi Season 09 - Episode 01,Episode 02 WEB-DL x264 AAC { TaRa }.mkv
Download torrent:    Khatron Ke Khiladi Season 09 - Episode 01,Episode 02 WEB-DL x264 AAC { TaRa }.mkv.torrent
Info Hash:f4c1931a91f5538275e165a7505825acf80ca52f
Category:TV  > HD
Torrent language:Hindi  
Seeds | Leech:35 | 13
Complete: 80
Health:
Total Size:1.18 GB
Downloaded:10 Times
Added By:      SkTaRa
Date Added:09-01-2019 03:29:pm | Last Edit:  13-01-2019 02:01:am

 

Main Technical Comments

Khatron Ke Khiladi Season 09 - Episode 02 WEB-DL x264 AAC { TaRa }.mkv


===================================================================
General
Complete name               : Khatron Ke Khiladi Season 09 - Episode 02 WEB-DL x264 AAC { TaRa }.mkv
Format                      : Matroska
Format version              : Version 4
File size                   : 691 MiB
Duration                    : 1 h 2 min
Overall bit rate            : 1 548 kb/s
===================================================================
Video
ID                          : 1
Format                      : AVC
Format/Info                 : Advanced Video Codec
Format profile              : [email protected]
Format settings             : CABAC / 4 Ref Frames
Format settings, CABAC      : Yes
Format settings, ReFrames   : 4 frames
Codec ID                    : V_MPEG4/ISO/AVC
Duration                    : 1 h 2 min
Bit rate                    : 1 417 kb/s
Nominal bit rate            : 1 500 kb/s
Width                       : 1 280 pixels
Height                      : 720 pixels
Display aspect ratio        : 16:9
Frame rate mode             : Constant
Frame rate                  : 25.000 FPS
Color space                 : YUV
Chroma subsampling          : 4:2:0
Bit depth                   : 8 bits
Scan type                   : Progressive
Bits/(Pixel*Frame)          : 0.062
Stream size                 : 632 MiB (92%)
Writing library             : x264 core 152
Default                     : Yes
Forced                      : No
===================================================================
Audio
ID                          : 2
Format                      : AAC LC
Format/Info                 : Advanced Audio Codec Low Complexity
Codec ID                    : A_AAC-2
Duration                    : 1 h 2 min
Bit rate                    : 128 kb/s
Channel(s)                  : 2 channels
Channel layout              : L R
Sampling rate               : 44.1 kHz
Frame rate                  : 43.066 FPS (1024 SPF)
Compression mode            : Lossy
Delay relative to video     : -80 ms
Stream size                 : 57.1 MiB (8%)
Default                     : Yes
Forced                      : No
===================================================================



























........................................................................


Loading...


Trackers:
udp://tracker.coppersurfer.tk:6969/announce

Khatron Ke Khiladi Season 09 - Episode 01,Episode 02 WEB-DL x264 AAC { TaRa }.mkv
Files
Khatron Ke Khiladi Season 09 - Episode 01 480p WEB-DL x264 AAC { TaRa }.mkv --- 517.29 MB
Khatron Ke Khiladi Season 09 - Episode 02 720p WEB-DL x264 AAC { TaRa }.mkv --- 690.58 MB
Khatron-Ke-Khiladi-9-825.jpg --- 96.46 kB
Torrent TaRa Digital Team PC Info.nfo --- 6.53 kB
Torrent TaRa Digital Team.txt --- 639.00 B


Similar Torrents
Type Name Size Added S L
h.264/x264 Khatron Se Khelenge (2018) 720p Hindi Dubbed HDRip...
1.28 GB 2018-06-25 13:34:30 117 15

Comments:
No comments still posted
Loading...
Powered by TT | Page Generated In 0.080923 secs.
| RSS Feed | Feed Info