[Login] or [Signup]


Warning! Use a VPN When Downloading Torrents!
Your IP Address is .   Location is
Your Internet Provider is tracking your torrent activity!  Hide your IP ADDRESS with a VPN!
We strongly recommend using Trust.Zone VPN to anonymize your torrenting. It's FREE!
Get VPN Now for FREE!
First Cams

Xvid/x264



Non-English

Loading...

Vikings S05E17 The Most Terrible Thing 1080p 5.1 - 2.0 x264 Phun Psyz


Complete Name :Vikings S05E17 The Most Terrible Thing 1080p 5.1 - 2.0 x264 Phun Psyz
Download torrent:    Vikings S05E17 The Most Terrible Thing 1080p 5.1 - 2.0 x264 Phun Psyz.torrent
Info Hash:b240a6770dfdcd5e270a113b6de07ebdfbc71266
Category:TV  > HD
Torrent language:English  
Seeds | Leech:362 | 209
Complete: 609
Health:
Total Size:839.96 MB
Downloaded:13 Times
Added By:      phunpsyz
Date Added:10-01-2019 01:04:pm | Last Edit:  13-01-2019 02:01:am

 

Main Technical Comments
www.imdb.com/title/tt6391150/?ref_=ttep_ep17

An unexpected turn among the settlers leaves Floki powerless. King Alfred confronts Judith. Bjorn must strike a deal with Harald. Wessex is once again threatened by a Viking force, but who will lead the Saxon army to defend the Realm?

Source: METCON







Format                      : MPEG-4
Format profile              : Base Media / Version 2
Codec ID                    : mp42 (isom/iso2/avc1/mp41)
File size                   : 840 MiB
Duration                    : 45 min 48 s
Overall bit rate mode       : Variable
Overall bit rate            : 2 564 kb/s

Video
ID                          : 1
Format                      : AVC
Format/Info                 : Advanced Video Codec
Format profile              : [email protected]
Format settings             : CABAC / 1 Ref Frames
Format settings, CABAC      : Yes
Format settings, ReFrames   : 1 frame
Codec ID                    : avc1
Codec ID/Info               : Advanced Video Coding
Duration                    : 45 min 48 s
Bit rate                    : 2 077 kb/s
Width                       : 1 920 pixels
Height                      : 1 080 pixels
Display aspect ratio        : 16:9
Frame rate mode             : Variable
Frame rate                  : 23.976 (24000/1001) FPS
Minimum frame rate          : 23.974 FPS
Maximum frame rate          : 23.981 FPS
Color space                 : YUV
Chroma subsampling          : 4:2:0
Bit depth                   : 8 bits
Scan type                   : Progressive
Bits/(Pixel*Frame)          : 0.042
Stream size                 : 681 MiB (81%)
Writing library             : x264 core 155 r2901 7d0ff22

Audio #1
ID                          : 2
Format                      : AC-3
Format/Info                 : Audio Coding 3
Commercial name             : Dolby Digital
Codec ID                    : ac-3
Duration                    : 45 min 48 s
Bit rate mode               : Constant
Bit rate                    : 320 kb/s
Channel(s)                  : 6 channels
Channel layout              : L R C LFE Ls Rs
Sampling rate               : 48.0 kHz
Frame rate                  : 31.250 FPS (1536 SPF)
Bit depth                   : 16 bits
Compression mode            : Lossy
Stream size                 : 105 MiB (12%)
Title                       : Surround / Surround
Language                    : English

Audio #2
ID                          : 3
Format                      : AAC LC
Format/Info                 : Advanced Audio Codec Low Complexity
Codec ID                    : mp4a-40-2
Duration                    : 45 min 48 s
Bit rate mode               : Variable
Bit rate                    : 160 kb/s
Channel(s)                  : 2 channels
Channel layout              : L R
Sampling rate               : 48.0 kHz
Frame rate                  : 46.875 FPS (1024 SPF)
Compression mode            : Lossy
Stream size                 : 52.5 MiB (6%)
Title                       : Stereo / Stereo
Language                    : English

Text
Language                    : English
Default                     : Yes
Forced                      : No
........................................................................


Loading...


Trackers:
udp://tracker.coppersurfer.tk:6969/announce

This Torrent also has backup trackers
URLSeedersLeechersCompleted
http://explodie.org:6969/announce000
http://open.acgtracker.com:1096/announce000

Vikings S05E17 The Most Terrible Thing 1080p 5.1 - 2.0 x264 Phun Psyz
Files
Vikings S05E17 The Most Terrible Thing 1080p 5.1 - 2.0 x264 Phun Psyz.mp4 --- 839.96 MB


Similar Torrents
Type Name Size Added S L
HD Vikings.S05E11.720p.WEB.h264-CONVOY[ettv]
808.52 MB 2018-11-29 04:45:16 3796 633
x264 Vikings.S05E13.HDTV.x264-SVA[ettv]
242.61 MB 2018-12-13 05:15:30 3767 791
x264 Vikings.S05E12.WEBRip.x264-PBS[ettv]
252.75 MB 2018-12-06 11:17:02 3673 887
x264 Vikings.S05E18.HDTV.x264-SVA[ettv]
270.06 MB 2019-01-17 05:06:02 3387 414
x264 Vikings.S05E14.HDTV.x264-KILLERS[ettv]
242.99 MB 2018-12-20 05:07:29 2856 460
x264 Vikings.S05E15.HDTV.x264-BATV[ettv]
331.35 MB 2018-12-27 05:06:18 2755 462
HD Vikings.S05E13.720p.HDTV.x264-AVS[ettv]
799.99 MB 2018-12-13 05:15:51 1796 531
HD Vikings.S05E12.Murder.Most.Foul.720p.AMZN.WEB-DL.D...
692.89 MB 2018-12-06 10:58:59 1770 243
x264 Vikings.S05E17.READNFO.WEB.h264-TBS[ettv]
609.63 MB 2019-01-10 10:05:49 1727 919
x264 Vikings.S05E16.HDTV.x264-LucidTV[ettv]
247.28 MB 2019-01-03 05:15:24 1724 165

Comments:
No comments still posted
Loading...
Powered by TT | Page Generated In 0.067176 secs.
| RSS Feed | Feed Info