[Login] or [Signup]


Warning! Use a VPN When Downloading Torrents!
Your IP Address is .   Location is
Your Internet Provider is tracking your torrent activity!  Hide your IP ADDRESS with a VPN!
We strongly recommend using Trust.Zone VPN to anonymize your torrenting. It's FREE!
Get VPN Now for FREE!
First Cams

Xvid/x264



Non-English

Loading...

Afsar (2018) Punjabi 720p WEB-DL x264 AC3 5.1 ESub-Sun George


Complete Name :Afsar (2018) Punjabi 720p WEB-DL x264 AC3 5.1 ESub-Sun George
Download torrent:    Afsar (2018) Punjabi 720p WEB-DL x264 AC3 5.1 ESub-Sun George.torrent
Info Hash:ebc058b3a707a25ee10f086ea54cee868db218e8
Category:Movies  > HD
Torrent language:Other  
Seeds | Leech:31 | 104
Complete: 33
Health:
Total Size:1.69 GB
Downloaded:14 Times
Added By:      sungeorge
Date Added:11-01-2019 11:38:am | Last Edit:  13-01-2019 11:29:am

 

IMDB
Afsar
Afsar Released 05 Oct 2018

Genre Drama

Director Gulshan Singh

Writer Jass Grewal (story)

Actors Tarsem Jassar, Nimrat Khaira, Gurpreet Ghuggi, Nirmal Rishi

Plot A mid-level civil servant wishing to marry a young woman poses as a lower ranked civil servant to impress her father.

Link http://www.imdb.com/title/tt8765700

Last Updated 17-01-2019 23:44:12
6.6

Votes 78

Main Technical Comments
Afsar (2018) Punjabi 720p WEB-DL x264 AC3 5.1 ESub-Sun George





http://www.imdb.com/title/tt8765700/








For Direct Links Visit: http://FilmMaza.Org













===================================================================

Source : Telly (Thanks)

General
Format                                   : Matroska
Format version                           : Version 4 / Version 2
File size                                : 1.66 GiB
Duration                                 : 2 h 6 min
Overall bit rate                         : 1 878 kb/s
Movie name: Afsar (2018) Punjabi 720p WEB-DL x264 AC3 5.1 ESub-Sun George

===================================================================

Video
ID                                       : 1
Format                                   : AVC
Format/Info                              : Advanced Video Codec
Format profile                           : [email protected]
Format settings                          : CABAC / 4 Ref Frames
Format settings, CABAC                   : Yes
Format settings, RefFrames               : 4 frames
Codec ID                                 : V_MPEG4/ISO/AVC
Duration                                 : 2 h 6 min
Bit rate                                 : 1 500 kb/s
Width                                    : 1 280 pixels
Height                                   : 544 pixels
Display aspect ratio                     : 2.35:1
Frame rate mode                          : Variable
Frame rate                               : 24.000 FPS
Color space                              : YUV
Chroma subsampling                       : 4:2:0
Bit depth                                : 8 bits
Scan type                                : Progressive
Bits/(Pixel*Frame)                       : 0.090
Stream size                              : 1.32 GiB (79%)
Title                                    : Sun George

===================================================================

Audio
ID                                       : 2
Format                                   : AC-3
Format/Info                              : Audio Coding 3
Codec ID                                 : A_AC3
Duration                                 : 2 h 6 min
Bit rate mode                            : Constant
Bit rate                                 : 384 kb/s
Channel(s)                               : 6 channels
Channel positions                        : Front: L C R, Side: L R, LFE
Sampling rate                            : 48.0 kHz
Frame rate                               : 31.250 FPS (1536 SPF)
Bit depth                                : 16 bits
Compression mode                         : Lossy
Stream size                              : 348 MiB (20%)
Title                                    : Punjabi-Sun George
Language                                 : Panjabi
Service kind                             : Complete Main
Default                                  : Yes
Forced                                   : No

Text
ID                                       : 3
Format                                   : ASS
Codec ID                                 : S_TEXT/ASS
Codec ID/Info                            : Advanced Sub Station Alpha
Duration                                 : 2 h 4 min
Bit rate                                 : 118 b/s
Count of elements                        : 2008
Compression mode                         : Lossless
Stream size                              : 108 KiB (0%)
Title                                    : Sun George
Writing library                          : Lavc57.42.100 ssa
Language                                 : English
Default                                  : Yes
Forced                                   : Yes















........................................................................


Loading...


Trackers:
udp://tracker.pirateparty.gr:6969/announce

This Torrent also has backup trackers
URLSeedersLeechersCompleted
http://tracker.fastdownload.xyz:443/announce000
http://seeders-paradise.org:443/announce000
http://share.camoe.cn:8080/announce000

Afsar (2018) Punjabi 720p WEB-DL x264 AC3 5.1 ESub-Sun George
Files
Afsar (2018) Punjabi 720p WEB-DL x264 AC3 5.1 ESub-Sun George.mkv --- 1.66 GB
FilmMaza.Org – Download Movies For Free.url --- 121.00 B
Sample Afsar (2018) Punjabi 720p WEB-DL x264 AC3 5.1 ESub-Sun George.mkv --- 29.02 MB


Similar Torrents
Type Name Size Added S L
HD Afsar (2018) Punjabi 720p HDTV x264 AAC -Downloadh...
986.47 MB 2018-12-31 00:48:33 289 193
HD Afsar (2018) Punjabi 720p HDRip x264 AAC 5.1 ESubs...
991.95 MB 2019-01-10 10:44:08 251 589
HD Afsar (2018) 720p Punjabi HDRip x264 AAC by Full4m...
626.62 MB 2019-01-02 13:51:54 147 116
HD Afsar (2018) Punjabi 720p HDRip x264 AAC ESubs - D...
995.30 MB 2019-01-11 00:03:55 76 56

Comments:
No comments still posted
Loading...
Powered by TT | Page Generated In 0.628846 secs.
| RSS Feed | Feed Info