[Login] or [Signup]


Warning! Use a VPN When Downloading Torrents!
Your IP Address is .   Location is
Your Internet Provider is tracking your torrent activity!  Hide your IP ADDRESS with a VPN!
We strongly recommend using Trust.Zone VPN to anonymize your torrenting. It's FREE!
Get VPN Now for FREE!
First Cams

Xvid/x264



Non-English

Loading...

Phineas And Ferb Across The 2Nd Dimension 2011 x264 720p BluRay Dual Audio Telugu Tamil Hindi Engl...


Complete Name :Phineas And Ferb Across The 2Nd Dimension 2011 x264 720p BluRay Dual Audio Telugu Tamil Hindi English GOPISAHI
Download torrent:    Phineas And Ferb Across The 2Nd Dimension 2011 x264 720p BluRay Dual Audio Telugu Tamil Hindi Engl....torrent
Info Hash:f276d9d499999833c139df03190456b9730328c4
Category:Movies  > HD
Torrent language:Hindi  
Seeds | Leech:54 | 49
Complete: 214
Health:
Total Size:596.12 MB
Downloaded:10 Times
Added By:      GOPISAHI
Date Added:13-01-2019 06:16:am | Last Edit:  15-01-2019 05:10:am

 

Main Technical Comments
http://www.gopisahi.pw/

Format                         : Matroska
Format version                 : Version 4 / Version 2
File size                      : 596 MiB
Duration                       : 1 h 16 min
Overall bit rate               : 1 085 kb/s
Movie name                     : Phineas And Ferb Across The 2Nd Dimension 2011 GOPISAHI

Video
Format                         : AVC
Format/Info                    : Advanced Video Codec
Codec ID                       : V_MPEG4/ISO/AVC
Duration                       : 1 h 16 min
Bit rate                       : 699 kb/s
Width                          : 1 280 pixels
Height                         : 704 pixels
Display aspect ratio           : 16:9
Frame rate mode                : Constant
Frame rate                     : 23.976 (24000/1001) FPS
Color space                    : YUV
Chroma subsampling             : 4:2:0
Bit depth                      : 8 bits
Scan type                      : Progressive
Bits/(Pixel*Frame)             : 0.032
Stream size                    : 384 MiB (64%)
Title                          : GOPISAHI
Writing library                : x264 core 155 r2901 7d0ff22

Audio #1
Format                         : AAC
Duration                       : 1 h 16 min
Bit rate                       : 96.0 kb/s
Channel(s)                     : 2 channels
Channel positions              : Front: L R
Sampling rate                  : 48.0 kHz
Frame rate                     : 46.875 FPS (1024 SPF)
Compression mode               : Lossy
Delay relative to video        : -64 ms
Stream size                    : 52.9 MiB (9%)
Title                          : GOPISAHI
Language                       : Hindi

Audio #2
Format                         : AAC
Format/Info                    : Advanced Audio Codec
Duration                       : 1 h 16 min
Bit rate                       : 96.0 kb/s
Channel(s)                     : 2 channels
Channel positions              : Front: L R
Sampling rate                  : 48.0 kHz
Frame rate                     : 46.875 FPS (1024 SPF)
Compression mode               : Lossy
Delay relative to video        : -64 ms
Stream size                    : 52.9 MiB (9%)
Title                          : GOPISAHI
Language                       : English

Audio #3
Format                         : MPEG Audio
Codec ID/Hint                  : MP3
Duration                       : 1 h 16 min
Bit rate mode                  : Constant
Bit rate                       : 128 kb/s
Channel(s)                     : 2 channels
Sampling rate                  : 44.1 kHz
Frame rate                     : 38.281 FPS (1152 SPF)
Compression mode               : Lossy
Delay relative to video        : -64 ms
Stream size                    : 70.3 MiB (12%)
Title                          : GOPISAHI
Writing library                : LAME3.98.2
Language                       : Telugu

Audio #4
Format                         : AAC
Duration                       : 1 h 16 min
Bit rate                       : 61.4 kb/s
Channel(s)                     : 2 channels
Channel positions              : Front: L R
Sampling rate                  : 48.0 kHz
Frame rate                     : 46.875 FPS (1024 SPF)
Compression mode               : Lossy
Delay relative to video        : -64 ms
Stream size                    : 33.7 MiB (6%)
Title                          : GOPISAHI
Language                       : Tamil


........................................................................


Loading...


Trackers:
udp://tracker.coppersurfer.tk:6969/announce

Phineas And Ferb Across The 2Nd Dimension 2011 x264 720p BluRay Dual Audio Telugu Tamil Hindi English GOPISAHI
Files
Phineas And Ferb Across The 2Nd Dimension 2011 x264 720p BluRay Dual Audio Telugu Tamil Hindi English GOPISAHI.mkv --- 596.12 MB


Comments:
No comments still posted
Loading...
Powered by TT | Page Generated In 0.069436 secs.
| RSS Feed | Feed Info