[Login] or [Signup]


Warning! Use a VPN When Downloading Torrents!
Your IP Address is .   Location is
Your Internet Provider is tracking your torrent activity!  Hide your IP ADDRESS with a VPN!
We strongly recommend using Trust.Zone VPN to anonymize your torrenting. It's FREE!
Get VPN Now for FREE!
First Cams

Xvid/x264



Non-English

Loading...

[60mbAnime.com] One Piece - 868 [480p][EngSub].mkv


Complete Name :[60mbAnime.com] One Piece - 868 [480p][EngSub].mkv
Download torrent:    [60mbAnime.com] One Piece - 868 [480p][EngSub].mkv.torrent
Info Hash:771925a9cf200a4aed16c52de2b87a8fbe4b8aed
Category:Anime  > All
Torrent language:Japanese  
Seeds | Leech:2 | 0
Complete: 88
Health:
Total Size:216.82 MB
Downloaded:10 Times
Added By:      60mbAnime
Date Added:13-01-2019 07:29:am | Last Edit:  15-01-2019 05:10:am

 

Main Technical Comments


General
Complete name                            : [60mbAnime.com] One Piece - 868 [480p][EngSub].mkv
Format                                   : Matroska
Format version                           : Version 4
File size                                : 217 MiB
Duration                                 : 23 min 50 s
Overall bit rate                         : 1 271 kb/s
Encoded date                             : UTC 2010-02-22 21:41:29
Writing application                      : no_variable_data
Writing library                          : no_variable_data
Attachments                              : OpenSans-Semibold.ttf

Video
ID                                       : 1
Format                                   : AVC
Format/Info                              : Advanced Video Codec
Format profile                           : [email protected]
Format settings                          : CABAC / 6 Ref Frames
Format settings, CABAC                   : Yes
Format settings, RefFrames               : 6 frames
Codec ID                                 : V_MPEG4/ISO/AVC
Duration                                 : 23 min 50 s
Bit rate                                 : 1 172 kb/s
Width                                    : 848 pixels
Height                                   : 480 pixels
Display aspect ratio                     : 16:9
Frame rate mode                          : Constant
Frame rate                               : 23.976 (24000/1001) FPS
Color space                              : YUV
Chroma subsampling                       : 4:2:0
Bit depth                                : 8 bits
Scan type                                : Progressive
Bits/(Pixel*Frame)                       : 0.120
Stream size                              : 200 MiB (92%)
Writing library                          : x264 core 142
Default                                  : Yes
Forced                                   : No

Audio
ID                                       : 2
Format                                   : AAC LC
Format/Info                              : Advanced Audio Codec Low Complexity
Codec ID                                 : A_AAC-2
Duration                                 : 23 min 50 s
Bit rate                                 : 96.0 kb/s
Channel(s)                               : 2 channels
Channel layout                           : L R
Sampling rate                            : 44.1 kHz
Frame rate                               : 43.066 FPS (1024 SPF)
Compression mode                         : Lossy
Delay relative to video                  : -83 ms
Stream size                              : 16.4 MiB (8%)
Language                                 : Japanese
Default                                  : Yes
Forced                                   : No

Text
ID                                       : 3
Format                                   : ASS
Codec ID                                 : S_TEXT/ASS
Codec ID/Info                            : Advanced Sub Station Alpha
Duration                                 : 23 min 31 s
Bit rate                                 : 105 b/s
Count of elements                        : 282
Compression mode                         : Lossless
Stream size                              : 18.2 KiB (0%)
Language                                 : English
Default                                  : Yes
Forced                                   : No
........................................................................


Loading...


Trackers:
http://anidex.moe:6969/announce

This Torrent also has backup trackers
URLSeedersLeechersCompleted
http://anidex.moe:6969/announce000
http://nyaa.tracker.wf:7777/announce000
http://t.nyaatracker.com:80/announce000
http://share.camoe.cn:8080/announce000
http://uw0.xyz/000

[60mbAnime.com] One Piece - 868 [480p][EngSub].mkv
Files
[60mbAnime.com] One Piece - 868 [480p][EngSub].mkv --- 216.82 MB


Similar Torrents
Type Name Size Added S L
All [60mbAnime.com] The Seven Deadly Sins The Movie - ...
2.91 GB 2018-12-31 17:34:04 25 10
All [60mbAnime.com] One Piece - 858 [720P].mkv
122.36 MB 2018-10-21 07:13:54 16 2
All [60mbAnime.com] One Piece - 869 [480p][EngSub].mkv
236.33 MB 2019-01-20 05:31:59 12 2
All [60mbAnime.com] One Piece - 859 [480p].mkv
226.51 MB 2018-10-28 05:19:06 12 1
All [60mbAnime.com] One Piece - 857 [480p].mkv
236.13 MB 2018-10-14 05:42:57 11 3
All [60mbAnime.com] One Piece - 867 [480p][EngSub].mkv
217.56 MB 2019-01-06 06:18:19 9 1
All [60mbAnime.com] One Piece - 856 [480p] [EngSub].mk...
223.19 MB 2018-10-07 05:44:05 8 1
All [60mbAnime] One Piece - 855 [480p] [EngSub]
228.25 MB 2018-09-30 15:23:42 7 1
All [60mbAnime.com] One Piece - 862 [480p][EngSub].mkv
178.09 MB 2018-11-18 05:59:40 6 0
All [60mbAnime.com] One Piece - 861 [480p] [EngSub].mk...
193.51 MB 2018-11-11 06:12:45 4 3

Comments:
No comments still posted
Loading...
Powered by TT | Page Generated In 0.085332 secs.
| RSS Feed | Feed Info