[Login] or [Signup]


Warning! Use a VPN When Downloading Torrents!
Your IP Address is .   Location is
Your Internet Provider is tracking your torrent activity!  Hide your IP ADDRESS with a VPN!
We strongly recommend using Trust.Zone VPN to anonymize your torrenting. It's FREE!
Get VPN Now for FREE!
First Cams

Xvid/x264



Non-English

Loading...

Ajab Singh Ki Gajab Kahani 2018 1x264 720p Esub Amazon Hindi GOPISAHI


Complete Name :Ajab Singh Ki Gajab Kahani 2018 1x264 720p Esub Amazon Hindi GOPISAHI
Download torrent:    Ajab Singh Ki Gajab Kahani 2018 1x264 720p Esub Amazon Hindi GOPISAHI.torrent
Info Hash:5c3dce8ff95da0818fe98a90ea6d1019781fcd0d
Category:Movies  > HD
Torrent language:Hindi  
Seeds | Leech:359 | 410
Complete: 1,020
Health:
Total Size:642.52 MB
Downloaded:15 Times
Added By:      GOPISAHI
Date Added:13-01-2019 07:29:am | Last Edit:  15-01-2019 05:10:am

 

Main Technical Comments
http://www.gopisahi.pw/

Format                         : Matroska
Format version                 : Version 4 / Version 2
File size                      : 643 MiB
Duration                       : 1 h 52 min
Overall bit rate               : 797 kb/s
Movie name                     : Ajab Singh Ki Gajab Kahani 2018 GOPISAHI

Video
Format                         : AVC
Codec ID                       : V_MPEG4/ISO/AVC
Duration                       : 1 h 52 min
Bit rate                       : 699 kb/s
Width                          : 1 280 pixels
Height                         : 528 pixels
Display aspect ratio           : 2.40:1
Frame rate mode                : Constant
Frame rate                     : 24.000 FPS
Color space                    : YUV
Chroma subsampling             : 4:2:0
Bit depth                      : 8 bits
Scan type                      : Progressive
Bits/(Pixel*Frame)             : 0.043
Stream size                    : 563 MiB (88%)
Title                          : GOPISAHI
Writing library                : x264 core 157 r2935 545de2f

Audio
Format                         : AAC
Duration                       : 1 h 52 min
Bit rate                       : 96.0 kb/s
Channel(s)                     : 2 channels
Channel positions              : Front: L R
Sampling rate                  : 48.0 kHz
Frame rate                     : 46.875 FPS (1024 SPF)
Compression mode               : Lossy
Delay relative to video        : -21 ms
Stream size                    : 77.4 MiB (12%)
Title                          : GOPISAHI
Language                       : Hindi

Text
Language                       : English


........................................................................


Loading...


Trackers:
udp://tracker.coppersurfer.tk:6969/announce

Ajab Singh Ki Gajab Kahani 2018 1x264 720p Esub Amazon Hindi GOPISAHI
Files
Ajab Singh Ki Gajab Kahani 2018 1x264 720p Esub Amazon Hindi GOPISAHI.mkv --- 642.52 MB


Similar Torrents
Type Name Size Added S L
HD Ajab singh ki gajab kahani (2017) Hindi 720p HDRip...
876.08 MB 2019-01-13 07:38:10 388 334
HD Ajab singh ki gajab kahani (2017) Hindi 720p HDRip...
884.73 MB 2019-01-13 02:46:20 157 68
HD Ajab Singh Ki Gajab Kahani.2018.720P.Amazondl.Avc....
1.27 GB 2019-01-13 07:09:14 24 17

Comments:
No comments still posted
Loading...
Powered by TT | Page Generated In 0.081091 secs.
| RSS Feed | Feed Info