[Login] or [Signup]


Warning! Use a VPN When Downloading Torrents!
Your IP Address is .   Location is
Your Internet Provider is tracking your torrent activity!  Hide your IP ADDRESS with a VPN!
We strongly recommend using Trust.Zone VPN to anonymize your torrenting. It's FREE!
Get VPN Now for FREE!
First Cams

Xvid/x264



Non-English

Loading...

How to Train Your Dragon 3 2018 720p HDCAM.With.Sample.LLG


Complete Name :How to Train Your Dragon 3 2018 720p HDCAM.With.Sample.LLG
Download torrent:    How to Train Your Dragon 3 2018 720p HDCAM.With.Sample.LLG.torrent
Info Hash:23560043d17b4761d74e33412fe2f32dcb7670ce
Category:Movies  > Cam/TS
Torrent language:English  
Seeds | Leech:1,216 | 1,069
Complete: 4,448
Health:
Total Size:1.49 GB
Downloaded:17 Times
Added By:      LifeLongg
Date Added:14-01-2019 07:31:am | Last Edit:  27-01-2019 02:01:am

 

Main Technical Comments

Quote:



******************************Thumbnail:**********************



******************************Screenshots:********************

Screenshot 1

Screenshot 2

Screenshot 3

Screenshot 4

Screenshot 5

Screenshot 6

Screenshot 7

Screenshot 8

Screenshot 9

Screenshot 0

******************************************************

How to Train Your Dragon 3 2018 720p HDCAM.With.Sample.LLG.mp4
Format                                   : MPEG-4
Format profile                           : Base Media
Codec ID                                 : isom (isom/iso2/avc1/mp41)
File size                                : 1.45 GiB
Duration                                 : 1 h 34 min
Overall bit rate mode                    : Variable
Overall bit rate                         : 2 198 kb/s


Video
ID                                       : 1
Format                                   : AVC
Format/Info                              : Advanced Video Codec
Format profile                           : [email protected]
Format settings                          : CABAC / 1 Ref Frames
Format settings, CABAC                   : Yes
Format settings, RefFrames               : 1 frame
Codec ID                                 : avc1
Codec ID/Info                            : Advanced Video Coding
Duration                                 : 1 h 34 min
Bit rate mode                            : Variable
Bit rate                                 : 2 003 kb/s
Maximum bit rate                         : 6 000 kb/s
Width                                    : 1 280 pixels
Height                                   : 536 pixels
Display aspect ratio                     : 2.40:1
Frame rate mode                          : Constant
Frame rate                               : 29.970 (29970/1000) FPS
Original frame rate                      : 29.970 (30000/1001) FPS
Color space                              : YUV
Chroma subsampling                       : 4:2:0
Bit depth                                : 8 bits
Scan type                                : Progressive
Bits/(Pixel*Frame)                       : 0.097
Stream size                              : 1.32 GiB (91%)

Audio
ID                                       : 2
Format                                   : AC-3
Format/Info                              : Audio Coding 3
Commercial name                          : Dolby Digital
Codec ID                                 : ac-3
Duration                                 : 1 h 34 min
Bit rate mode                            : Constant
Bit rate                                 : 192 kb/s
Channel(s)                               : 2 channels
Channel layout                           : L R
Sampling rate                            : 48.0 kHz
Frame rate                               : 31.250 FPS (1536 SPF)
Bit depth                                : 16 bits
Compression mode                         : Lossy
Stream size                              : 130 MiB (9%)
Service kind                             : Complete Main
Default                                  : Yes
Alternate group                          : 1




******************************************************


........................................................................


Loading...


Trackers:
udp://tracker.openbittorrent.com:80/announce

How to Train Your Dragon 3 2018 720p HDCAM.With.Sample.LLG
Files
How to Train Your Dragon 3 2018 720p HDCAM.With.Sample.LLG.mp4 --- 1.45 GB
SAMPLE.ts --- 39.12 MB


Similar Torrents
Type Name Size Added S L
Cam/TS How to Train Your Dragon 3 2019 HDCAM XViD AC3-ETR...
1.17 GB 2019-01-14 00:13:01 3275 1959
Divx/Xvid How.to.Talk.to.Girls.at.Parties.2017.HDRip.XviD.AC...
1.38 GB 2018-05-23 11:19:03 2000 748
Cam/TS How to Train Your Dragon 3 2018 NEW 720p HDCAM-1XB...
2.44 GB 2019-02-11 06:05:15 972 1083
Ebooks Hype - A Doctor's Guide to Medical Myths, Exaggera...
1.64 MB 2018-05-14 04:44:51 813 7
Cam/TS How to Train Your Dragon 3 2019 HDCAM.XVID.AC3.[MO...
885.72 MB 2019-01-14 05:13:27 799 496
Ebooks Start and Run a Business from Home - How to Turn Y...
1.22 MB 2018-12-26 19:17:44 764 81
HD How.to.Talk.to.Girls.at.Parties.2017.1080p.WEB-DL....
4.01 GB 2018-05-23 17:29:29 706 359
Ebooks How to Tie a Scarf - 33 Styles By Potter Gift
20.78 MB 2018-08-19 05:31:50 533 23
Ebooks Start and Run A Business From Home - How to turn y...
1.22 MB 2018-07-07 02:28:16 525 17
Ebooks How to Think About Algorithms By Jeff Edmonds
6.04 MB 2018-12-28 19:56:18 520 47

Comments:
No comments still posted
Loading...
Powered by TT | Page Generated In 0.098734 secs.
| RSS Feed | Feed Info