[Login] or [Signup]


Warning! Use a VPN When Downloading Torrents!
Your IP Address is .   Location is
Your Internet Provider is tracking your torrent activity!  Hide your IP ADDRESS with a VPN!
We strongly recommend using Trust.Zone VPN to anonymize your torrenting. It's FREE!
Get VPN Now for FREE!
First Cams

Xvid/x264



Non-English

Loading...

Glass 2019 720p HDCAM.LLG


Complete Name :Glass 2019 720p HDCAM.LLG
Download torrent:    Glass 2019 720p HDCAM.LLG.torrent
Info Hash:970112b7d0836f83c3a99f3660173526593f64de
Category:Movies  > Cam/TS
Torrent language:English  
Seeds | Leech:312 | 445
Complete: 1,059
Health:
Total Size:1.87 GB
Downloaded:12 Times
Added By:      LifeLongg
Date Added:19-01-2019 02:32:am | Last Edit:  27-01-2019 02:01:am

 

IMDB
Glass
Glass Released 18 Jan 2019

Genre Drama, Mystery, Sci-Fi, Thriller

Director M. Night Shyamalan

Writer M. Night Shyamalan, M. Night Shyamalan (characters)

Actors James McAvoy, Bruce Willis, Samuel L. Jackson, Anya Taylor-Joy

Plot Security guard David Dunn uses his supernatural abilities to track Kevin Wendell Crumb, a disturbed man who has twenty-four personalities.

Link http://www.imdb.com/title/tt6823368

Last Updated 18-02-2019 17:04:10
7.3

Votes 10,947

Main Technical Comments

Quote:




******************************Thumbnail:**********************



******************************Screenshots:********************

Screenshot 1

Screenshot 2

Screenshot 3

Screenshot 4

Screenshot 5

Screenshot 6

Screenshot 7

Screenshot 8

Screenshot 9

Screenshot 0


******************************************************


Glass 2019 720p HDCAM.LLG.mp4
Format                                   : MPEG-4
Format profile                           : Base Media
Codec ID                                 : isom (isom/iso2/avc1/mp41)
File size                                : 1.85 GiB
Duration                                 : 2 h 0 min
Overall bit rate mode                    : Variable
Overall bit rate                         : 2 196 kb/s


Video
ID                                       : 1
Format                                   : AVC
Format/Info                              : Advanced Video Codec
Format profile                           : [email protected]
Format settings                          : CABAC / 1 Ref Frames
Format settings, CABAC                   : Yes
Format settings, RefFrames               : 1 frame
Codec ID                                 : avc1
Codec ID/Info                            : Advanced Video Coding
Duration                                 : 2 h 0 min
Bit rate mode                            : Variable
Bit rate                                 : 2 001 kb/s
Maximum bit rate                         : 6 000 kb/s
Width                                    : 1 280 pixels
Height                                   : 536 pixels
Display aspect ratio                     : 2.40:1
Frame rate mode                          : Constant
Frame rate                               : 29.970 (29970/1000) FPS
Original frame rate                      : 29.970 (30000/1001) FPS
Color space                              : YUV
Chroma subsampling                       : 4:2:0
Bit depth                                : 8 bits
Scan type                                : Progressive
Bits/(Pixel*Frame)                       : 0.097
Stream size                              : 1.68 GiB (91%)


Audio
ID                                       : 2
Format                                   : AC-3
Format/Info                              : Audio Coding 3
Commercial name                          : Dolby Digital
Codec ID                                 : ac-3
Duration                                 : 2 h 0 min
Bit rate mode                            : Constant
Bit rate                                 : 192 kb/s
Channel(s)                               : 2 channels
Channel layout                           : L R
Sampling rate                            : 48.0 kHz
Frame rate                               : 31.250 FPS (1536 SPF)
Bit depth                                : 16 bits
Compression mode                         : Lossy
Stream size                              : 166 MiB (9%)
Service kind                             : Complete Main
Default                                  : Yes
Alternate group                          : 1



********************************************************


........................................................................


Loading...


Trackers:
udp://tracker.openbittorrent.com:80/announce

Glass 2019 720p HDCAM.LLG
Files
Glass 2019 720p HDCAM.LLG.mp4 --- 1.85 GB
SAMPLE 1.ts --- 7.89 MB
SAMPLE 2.ts --- 9.82 MB


Similar Torrents
Type Name Size Added S L
Cam/TS Glass 2019 720p HDCAM-1XBET[MOVCR]
1.03 GB 2019-01-18 06:02:43 6821 2807
Cam/TS Glass 2019.HDCAM.XViD.AC3-ETRG
1.27 GB 2019-01-18 11:11:14 6454 4840
Cam/TS Glass.2019.V2.HDCAM.x264.AC3-ETRG
1.02 GB 2019-01-24 20:30:50 3385 2570
Cam/TS Glass 2019 HDCAM x264 AC3-ETRG
1.03 GB 2019-01-20 20:20:10 3121 1087
Cam/TS Glass 2019 720p HDCAM-1XBET
2.44 GB 2019-01-18 06:42:24 2438 1148
Cam/TS Glass 2018 720p HDCAM v2-1XBET
2.44 GB 2019-01-24 13:09:50 1294 667

Comments:

<< Previous      Next >>
1 - 1

[Report] Posted: 20-01-2019 at 08:48:19
mafkees



1xbett source

1 - 1
<< Previous      Next >>

Loading...
Powered by TT | Page Generated In 0.688325 secs.
| RSS Feed | Feed Info