[Login] or [Signup]


Warning! Use a VPN When Downloading Torrents!
Your IP Address is .   Location is
Your Internet Provider is tracking your torrent activity!  Hide your IP ADDRESS with a VPN!
We strongly recommend using Trust.Zone VPN to anonymize your torrenting. It's FREE!
Get VPN Now for FREE!
First Cams

Xvid/x264



Non-English

Loading...

Second Act 2018 720p HDCAM.LLG


Complete Name :Second Act 2018 720p HDCAM.LLG
Download torrent:    Second Act 2018 720p HDCAM.LLG.torrent
Info Hash:ee3bced28f1d22aaf4282d19e858801c824cb2b7
Category:Movies  > Cam/TS
Torrent language:English  
Seeds | Leech:0 | 0
Complete: 0
Health:
Total Size:1.48 GB
Downloaded:11 Times
Added By:      LifeLongg
Date Added:19-01-2019 04:55:am | Last Edit:  27-01-2019 02:01:am

 

IMDB
Second Act
Second Act Released 21 Dec 2018

Genre Comedy, Romance

Director Peter Segal

Writer Justin Zackham, Elaine Goldsmith-Thomas

Actors Jennifer Lopez, Vanessa Hudgens, Leah Remini, Treat Williams

Plot A big box store worker reinvents her life and her life-story and shows Madison Avenue what street smarts can do.

Link http://www.imdb.com/title/tt2126357

Last Updated 18-02-2019 17:09:01
6.0

Votes 3,681

Main Technical Comments

Quote:




******************************Thumbnail:**********************



******************************Screenshots:********************

Screenshot 1

Screenshot 2

Screenshot 3

Screenshot 4

Screenshot 5

Screenshot 6

Screenshot 7

Screenshot 8

Screenshot 9

Screenshot 0


******************************************************

Second Act 2018 720p HDCAM.LLG.mp4
Format                                   : MPEG-4
Format profile                           : Base Media
Codec ID                                 : isom (isom/iso2/avc1/mp41)
File size                                : 1.48 GiB
Duration                                 : 1 h 36 min
Overall bit rate mode                    : Variable
Overall bit rate                         : 2 196 kb/s


Video
ID                                       : 1
Format                                   : AVC
Format/Info                              : Advanced Video Codec
Format profile                           : [email protected]
Format settings                          : CABAC / 1 Ref Frames
Format settings, CABAC                   : Yes
Format settings, RefFrames               : 1 frame
Codec ID                                 : avc1
Codec ID/Info                            : Advanced Video Coding
Duration                                 : 1 h 36 min
Bit rate mode                            : Variable
Bit rate                                 : 2 001 kb/s
Maximum bit rate                         : 6 000 kb/s
Width                                    : 1 280 pixels
Height                                   : 536 pixels
Display aspect ratio                     : 2.40:1
Frame rate mode                          : Constant
Frame rate                               : 29.970 (29970/1000) FPS
Original frame rate                      : 29.970 (30000/1001) FPS
Color space                              : YUV
Chroma subsampling                       : 4:2:0
Bit depth                                : 8 bits
Scan type                                : Progressive
Bits/(Pixel*Frame)                       : 0.097
Stream size                              : 1.35 GiB (91%)


Audio
ID                                       : 2
Format                                   : AC-3
Format/Info                              : Audio Coding 3
Commercial name                          : Dolby Digital
Codec ID                                 : ac-3
Duration                                 : 1 h 36 min
Bit rate mode                            : Constant
Bit rate                                 : 192 kb/s
Channel(s)                               : 2 channels
Channel layout                           : L R
Sampling rate                            : 48.0 kHz
Frame rate                               : 31.250 FPS (1536 SPF)
Bit depth                                : 16 bits
Compression mode                         : Lossy
Stream size                              : 132 MiB (9%)
Service kind                             : Complete Main
Default                                  : Yes
Alternate group                          : 1





********************************************************


........................................................................


Loading...


Trackers:
UDP://TRACKER.LEECHERS-PARADISE.ORG:6969/ANNOUNCE

Second Act 2018 720p HDCAM.LLG
Files
SAMPLE.ts --- 5.86 MB
Second Act 2018 720p HDCAM.LLG.mp4 --- 1.48 GB


Similar Torrents
Type Name Size Added S L
Cam/TS Second Act 2018 HDCAM XViD AC3-ETRG
1.16 GB 2019-01-15 10:19:11 885 717
Cam/TS Second Act 2018 720p HDCAM-1XBET[MOVCR]
844.18 MB 2019-01-15 05:47:26 480 190
Cam/TS Second Act 2018 HDCAM x264 AC3-ETRG
909.45 MB 2019-01-16 19:29:07 443 336
Video [CuckoldSessions/DogFartNetwork]Katrina Jade - Kat...
340.86 MB 2018-11-25 18:10:08 360 31
Cam/TS Second Act 2018 720p HDCAM-1XBET
2.45 GB 2019-01-15 06:57:07 178 82
Video FC2 PPV 754217 Legend of the second advent18 years...
645.13 MB 2019-02-17 17:53:08 166 152
Video WeFuckBlackGirls - Daizy Cooper (Daizy CooperS Sec...
360.81 MB 2018-08-13 15:38:57 125 41
HD Video [BlacksOnBlondes] - Valentina Nappi - Second Apper...
1.86 GB 2018-09-30 08:23:12 81 19
Video Syren Demer - Syren DeMers Second Appearance (Blac...
397.72 MB 2018-12-10 09:56:22 77 19
Video CuckoldSessions - Jennifer White (Jennifer Whites ...
465.96 MB 2018-04-15 15:10:08 60 96

Comments:
No comments still posted
Loading...
Powered by TT | Page Generated In 0.295789 secs.
| RSS Feed | Feed Info