[Login] or [Signup]


Warning! Use a VPN When Downloading Torrents!
Your IP Address is .   Location is
Your Internet Provider is tracking your torrent activity!  Hide your IP ADDRESS with a VPN!
We strongly recommend using Trust.Zone VPN to anonymize your torrenting. It's FREE!
Get VPN Now for FREE!
First Cams

Xvid/x264



Non-English

Loading...

Escape.Room.2019.CAM.XviD.LLG


Complete Name :Escape.Room.2019.CAM.XviD.LLG
Download torrent:    Escape.Room.2019.CAM.XviD.LLG.torrent
Info Hash:93d45323535dc5797e083ce974275313f0c0feab
Category:Movies  > Cam/TS
Torrent language:English  
Seeds | Leech:409 | 118
Complete: 2,272
Health:
Total Size:1.10 GB
Downloaded:16 Times
Added By:      LifeLongg
Date Added:20-01-2019 08:26:pm | Last Edit:  27-01-2019 02:01:am

 

Main Technical Comments

Quote:




******************************Thumbnail:**********************



******************************Screenshots:********************

Screenshot 1

Screenshot 2

Screenshot 3

Screenshot 4

Screenshot 5

Screenshot 6

Screenshot 7

Screenshot 8

Screenshot 9

Screenshot 0


******************************************************

Escape.Room.2019.CAM.XviD.LLG.mp4
Format                                   : MPEG-4
Format profile                           : Base Media
Codec ID                                 : isom (isom/iso2/avc1/mp41)
File size                                : 1.08 GiB
Duration                                 : 1 h 34 min
Overall bit rate mode                    : Variable
Overall bit rate                         : 1 636 kb/s
Writing application                      : Lavf57.83.100

Video
ID                                       : 1
Format                                   : AVC
Format/Info                              : Advanced Video Codec
Format profile                           : [email protected]
Format settings                          : CABAC / 1 Ref Frames
Format settings, CABAC                   : Yes
Format settings, RefFrames               : 1 frame
Codec ID                                 : avc1
Codec ID/Info                            : Advanced Video Coding
Duration                                 : 1 h 34 min
Bit rate mode                            : Variable
Bit rate                                 : 1 503 kb/s
Maximum bit rate                         : 4 500 kb/s
Width                                    : 720 pixels
Height                                   : 400 pixels
Display aspect ratio                     : 16:9
Frame rate mode                          : Constant
Frame rate                               : 23.976 (23976/1000) FPS
Original frame rate                      : 23.976 (24000/1001) FPS
Color space                              : YUV
Chroma subsampling                       : 4:2:0
Bit depth                                : 8 bits
Scan type                                : Progressive
Bits/(Pixel*Frame)                       : 0.218
Stream size                              : 1 019 MiB (92%)
Codec configuration box                  : avcC

Audio
ID                                       : 2
Format                                   : MPEG Audio
Format version                           : Version 1
Format profile                           : Layer 3
Format settings                          : Joint stereo
Codec ID                                 : mp4a-6B
Duration                                 : 1 h 34 min
Duration_LastFrame                       : -1 ms
Bit rate mode                            : Constant
Bit rate                                 : 128 kb/s
Channel(s)                               : 2 channels
Sampling rate                            : 44.1 kHz
Compression mode                         : Lossy
Stream size                              : 86.8 MiB (8%)
Writing library                          : LAME3.100
Default                                  : Yes
Alternate group                          : 1



********************************************************


........................................................................


Loading...


Trackers:
udp://tracker.openbittorrent.com:80/announce

Escape.Room.2019.CAM.XviD.LLG
Files
Escape.Room.2019.CAM.XviD.LLG.mp4 --- 1.08 GB
SAMPLE.ts --- 19.11 MB


Similar Torrents
Type Name Size Added S L
Divx/Xvid No.Escape.Room.2018.HDRip.XViD-ETRG
707.55 MB 2018-10-22 10:40:54 2961 1017
Cam/TS Escape Room (2019) 720p HC HDCAMRip x264-AC3-800MB...
800.33 MB 2019-01-26 15:46:34 2099 2064
Dubs/Dual Audio Escape Room (2019) HC HDCAM 720p [Hindi (Clean) + ...
896.74 MB 2019-02-01 20:49:56 1981 2130
Cam/TS Escape Room 2019 NEW 720p HDCAM-1XBET
2.45 GB 2019-02-09 12:57:15 1699 1499
Divx/Xvid No.Escape.Room.2018.HDRip.XviD.AC3-EVO
1.23 GB 2018-10-22 13:01:10 568 173
Cam/TS Escape Room 2019 HDCAM.XViD.AC3-ETRG
1.27 GB 2019-02-11 10:39:44 507 463
Cam/TS Escape Room (2019) CAMRip x264-AAC-700MB [MOVCR]
703.29 MB 2019-01-20 16:07:24 315 150
HD No.Escape.Room.2018.1080p.WEB-DL.DD5.1.H264-FGT[Et...
3.25 GB 2018-10-22 13:21:31 305 202
Cam/TS Escape Room 2019 720p HDCAM x264 [MW]
803.10 MB 2019-02-17 10:15:37 131 92
h.264/x264 No.Escape.Room.2018.HDRip.XviD.AC3-EVO[EtMovies]
1.23 GB 2018-10-22 12:45:49 129 32

Comments:
No comments still posted
Loading...
Powered by TT | Page Generated In 0.089288 secs.
| RSS Feed | Feed Info